Непобедимый (Юрий Борецкий) [1983, боевые искусства, приключение, DVDRip]

Ответить на тему
 
Автор Сообщение

user ®

Стаж: 7 лет 7 месяцев

Сообщений: 20008

Пост Пост: #1 от 03-Ноя-2015 17:30

[Цитировать]

Непобедимый
Жанр: боевые искусства, приключение
Год выпуска: 1983
Продолжительность: 01:09:12
-
Режиссёр: Юрий Борецкий
В ролях: Андрей Ростоцкий, Хамза Умаров, Нурмухан Жантурин, Едгар Сагдиев, Гульнара Дусматова, Биродар Атабаев, Дильшот Исмаилов, Николай Карпов
-
Описание: Советская Россия 20-х годов. Бывший красноармеец Андрей Хромов, одержимый идеей создания нового вида борьбы — самообороны без оружия, отправляется в Среднюю Азию, чтобы, познакомившись с местными боевыми искусствами, усовершенствовать свое мастерство. Хромов еще не знает, что вскоре оно спасет ему жизнь.
-
Доп. информация:
Фильм посвящён памяти Анатолия Аркадьевича Харлампиева - основоположника борьбы самбо.
-
Сэмпл: http://sendfile.su/1170655
-
Качество видео: DVDRip (DVD5/ilya29)
Формат видео: AVI
Видео: 688x336 (2.05:1), 25 fps, XviD build 65 ~2061 kbps avg, 0.36 bit/pixel
Аудио: 48 kHz, AC3 Dolby Digital, 2/0 (L,R) ch, ~192 kbps
MediaInfo
General
Complete name : C:\Users\ALEX\Downloads\Фильмы\Непобедимый.1983.DVDRip.XviD.AC3.avi
Format : AVI
Format/Info : Audio Video Interleave
File size : 1.09 GiB
Duration : 1h 9mn
Overall bit rate : 2 264 Kbps
Writing application : VirtualDubMod 1.5.10.2 (build 2542/release)
Writing library : VirtualDubMod build 2542/release
Video
ID : 0
Format : MPEG-4 Visual
Format profile : Advanced Simple@L5
Format settings, BVOP : 1
Format settings, QPel : No
Format settings, GMC : No warppoints
Format settings, Matrix : Custom
Codec ID : XVID
Codec ID/Hint : XviD
Duration : 1h 9mn
Bit rate : 2 062 Kbps
Width : 688 pixels
Height : 336 pixels
Display aspect ratio : 2.048
Frame rate : 25.000 fps
Color space : YUV
Chroma subsampling : 4:2:0
Bit depth : 8 bits
Scan type : Progressive
Compression mode : Lossy
Bits/(Pixel*Frame) : 0.357
Stream size : 1 021 MiB (91%)
Writing library : XviD 65
Audio
ID : 1
Format : AC-3
Format/Info : Audio Coding 3
Mode extension : CM (complete main)
Format settings, Endianness : Big
Codec ID : 2000
Duration : 1h 9mn
Bit rate mode : Constant
Bit rate : 192 Kbps
Channel(s) : 2 channels
Channel positions : Front: L R
Sampling rate : 48.0 KHz
Bit depth : 16 bits
Compression mode : Lossy
Stream size : 95.0 MiB (8%)
Alignment : Split accross interleaves
Interleave, duration : 40 ms (1.00 video frame)
Interleave, preload duration : 500 ms
Скриншоты
Скачать

Скачать торрент!

Как скачивать? · Что такое торрент? · Рейтинг и ограничения

Сайт не распространяет и не хранит электронные версии произведений, а лишь предоставляет доступ к создаваемому пользователями каталогу ссылок на торрент-файлы, которые содержат только списки хеш-сумм

[Профиль] [ЛС]
Показать сообщения:    
Ответить на тему

Текущее время: Сегодня 18:24

Часовой пояс: GMT + 4



Вы не можете начинать темы
Вы не можете отвечать на сообщения
Вы не можете редактировать свои сообщения
Вы не можете удалять свои сообщения
Вы не можете голосовать в опросах
Вы не можете прикреплять файлы к сообщениям
Вы не можете скачивать файлы