Гелиос / Chek dou (Лок Мэн Люн / Lok Man Leung, Ким-Чинг Люк / Kim-Ching Luk) [2015, Гонконг, Китай, США, фэнтези, боевик, триллер, криминал, WEB-DLRip] DVO

Ответить на тему
 
Автор Сообщение

user ®

Стаж: 13 лет

Сообщений: 15071

Пост Пост: #1 от 02-Ноя-2015 10:33

[Цитировать]

Гелиос / Chek dou
Страна: Гонконг, Китай, США
Жанр: фэнтези, боевик, триллер, криминал
Год выпуска: 2015
Продолжительность: 01:56:38-Перевод: Любительский (двухголосный закадровый) den904 & DeadSno
Cубтитры: нет
Оригинальная аудиодорожка: нет-Режиссер: Лок Мэн Люн / Lok Man Leung, Ким-Чинг Люк / Kim-Ching Luk-В ролях: Джеки Чун, Ник Чун, Шон Юе, Дженис Ман, Чи Чжин Хи, Чхве Ши Вон, Юн Джин И, Жозефин Ку, Вэньюань Фэн, Чан Чэнь-Описание: Известный террорист по кличке «Гелиос» похищает некоторое количество урана и теперь планирует создать ядерную бомбу, чтобы затем продать её одной из гонконгских террористических организаций. Главный инспектор городской полиции Ли Инь Мин, профессор физики Сиу Чи Ян и два эксперта по оружию, приехавших из Южной Кореи несмотря на противоречия, возникающие между ними, должны работать вместе, чтобы не допустить катастрофы.-Сэмпл: http://sendfile.su/1170224

Качество видео: WEB-DLRip
Формат видео: AVI
Видео: 720x304 (2.37:1), 24.000 fps, XviD build 50 ~1572 kbps avg, 0.30 bit/pixel
Аудио: 48 kHz, AC3 Dolby Digital, 2/0 (L,R) ch, ~192 kbps
MediaInfo
Формат : AVI
Формат/Информация : Audio Video Interleave
Размер файла : 1,45 Гбайт
Продолжительность : 1 ч. 56 м.
Общий поток : 1774 Кбит/сек
Программа кодирования : VirtualDubMod 1.5.10.2 (build 2540/release)
Библиотека кодирования : VirtualDub build 35390/release
Видео
Идентификатор : 0
Формат : MPEG-4 Visual
Профиль формата : Advanced Simple@L5
Параметр BVOP формата : 1
Параметр QPel формата : Нет
Параметр GMC формата : Без точки перехода
Параметр матрицы формата : Default (MPEG)
Идентификатор кодека : XVID
Идентификатор кодека/Подсказка : XviD
Продолжительность : 1 ч. 56 м.
Битрейт : 1573 Кбит/сек
Ширина : 720 пикселей
Высота : 304 пикселя
Соотношение сторон : 2,35:1
Частота кадров : 24,000 кадра/сек
Цветовое пространство : YUV
Субдискретизация насыщенности : 4:2:0
Битовая глубина : 8 бит
Тип развёртки : Прогрессивная
Метод сжатия : С потерями
Бит/(Пиксели*Кадры) : 0.299
Размер потока : 1,28 Гбайт (89%)
Библиотека кодирования : XviD 1.2.1 (UTC 2008-12-04)
Аудио
Идентификатор : 1
Формат : AC-3
Формат/Информация : Audio Coding 3
Расширение режима : CM (complete main)
Параметр Endianness формата : Big
Идентификатор кодека : 2000
Продолжительность : 1 ч. 56 м.
Вид битрейта : Постоянный
Битрейт : 192 Кбит/сек
Каналы : 2 канала
Расположение каналов : Front: L R
Частота : 48,0 КГц
Метод сжатия : С потерями
Задержка видео : 24 мс.
Размер потока : 160 Мбайт (11%)
Выравнивание : Разделение по промежуткам
Продолжительность промежутка : 42 мс. (1,00 видеокадр)
Время предзагрузки промежутка : 500 мс.
Скриншот c названием фильма Скриншоты
Скачать

Скачать торрент! Гелиос / Chek dou (Лок Мэн Люн / Lok Man Leung, Ким-Чинг Люк / Kim-Ching Luk) [2015, Гонконг, Китай, США, фэнтези, боевик, триллер, криминал, WEB-DLRip] DVO

Как скачивать? · Что такое торрент? · Рейтинг и ограничения

Сайт не распространяет и не хранит электронные версии произведений, а лишь предоставляет доступ к создаваемому пользователями каталогу ссылок на торрент-файлы, которые содержат только списки хеш-сумм

[Профиль] [ЛС]
Показать сообщения:    
Ответить на тему

Текущее время: Сегодня 17:46

Часовой пояс: GMT + 4



Вы не можете начинать темы
Вы не можете отвечать на сообщения
Вы не можете редактировать свои сообщения
Вы не можете удалять свои сообщения
Вы не можете голосовать в опросах
Вы не можете прикреплять файлы к сообщениям
Вы не можете скачивать файлы