Гориллы в тумане / Гориллы во мгле / Gorillas in the Mist: The Story of Dian Fossey (Майкл Эптид / Michael Apted) [1988, США, драма, биография, BDRip 720p] Dub (Варус видео) + MVO (Первый канал) + Original Eng + Sub Eng

Ответить на тему
 
Автор Сообщение

user ®

Стаж: 7 лет 7 месяцев

Сообщений: 20008

Пост Пост: #1 от 01-Ноя-2015 22:12

[Цитировать]

Гориллы в Тумане / Гориллы во Мгле / Gorillas in the Mist: The Story of Dian Fossey
«She left everything she knew and entered a world few have ever seen. To save a wonderous creature from the cruelty of men, she went further than anyone dared. Some say she went too far»
- Страна: США
Жанр: драма, биография
Год выпуска: 1988
Продолжительность: 02:09:18-Перевод №1: Профессиональный (дублированный) - Варус видео
Перевод №2: Профессиональный (многоголосый закадровый) - Первый канал
Оригинальная аудиодорожка: English
Cубтитры: English (full + full SDH)
Навигация по главам: присутствует - 18 глав-Режиссер: Майкл Эптид / Michael Apted
В ролях: Сигурни Уивер, Брайан Браун, Джули Харрис, Джон Омира Милуви, Айэйн Катбертсон, Константин Александров, Вайгва Вачира, Айэйн Глен, Дэвид Лэнсбери, Мэгги О’Нил-Описание: Эта женщина выбрала одинокую и трудную жизнь среди дикой природы, посвятив себя изучению исчезающих животных. В одиночку она отправляется в Центральную Африку, где в стране, полной красот, чудес и опасностей, следует за своей мечтой, любит и рискует жизнью, спасая горных горилл от человеческой жестокости.
Автобиография Дайан Фосси — драматическая хроника ее бродячей жизни и замечательных открытий, которые удивили мир.-
Download sample-Качество видео: BDRip 720p | исх. [url=http://***/forum/viewtopic.php?t=4945539]Blu-ray Disc 1080p[/url] - thx: АДмин
Формат: MKV-Видео: 1 280x694 (1.85:1), 23.976 fps, H.264 ~8 100 kbps avg, 0.374 bit/pixel
Аудио №1: 48 kHz, AC3 Dolby Digital, 2/0 (L,R), ~192 kbps | Профессиональный (дублированный) - Варус видео
Аудио №2: 48 kHz, AC3 Dolby Digital, 2/0 (L,R), ~192 kbps | Профессиональный (многоголосый закадровый) - Первый канал
Аудио №3: 48.0 kHz, AC3 Dolby Digital, 3/2 (L,C,R,l,r) + LFE ch, ~640 kbps | English
Субтитры №1: English (full) | *.srt
Субтитры №2: English (full SDH) | *.srt-

MediaInfo
General
Unique ID : 225761423892923817204403567995370325439 (0xA9D81193756075FE91DE2B6E9A13C5BF)
Complete name : D:\Фильмы\Рипы\Gorillas in the Mist The Story of Dian Fossey.1988.BDRip 720p.eFK tRuAVC.mkv
Format : Matroska
Format version : Version 4 / Version 2
File size : 8.29 GiB
Duration : 2h 9mn
Overall bit rate : 9 175 Kbps
Movie name : Гориллы в Тумане / Гориллы во Мгле / Gorillas in the Mist: The Story of Dian Fossey (1988) - Release for rutracker
Encoded date : UTC 2015-10-31 12:05:03
Writing application : mkvmerge v7.6.0 ('Garden of Dreams') 64bit built on Feb 8 2015 13:04:34
Writing library : libebml v1.3.1 + libmatroska v1.4.2
Attachements : cover.png
DURATION : 02:03:40.245000000
NUMBER_OF_FRAMES : 1083
NUMBER_OF_BYTES : 33739
_STATISTICS_WRITING_APP : mkvmerge v7.6.0 ('Garden of Dreams') 64bit built on Feb 8 2015 13:04:34
_STATISTICS_WRITING_DATE_UT : 2015-10-31 12:05:03
_STATISTICS_TAGS : BPS DURATION NUMBER_OF_FRAMES NUMBER_OF_BYTES
Video
ID : 1
Format : AVC
Format/Info : Advanced Video Codec
Format profile : High@L4.1
Format settings, CABAC : Yes
Format settings, ReFrames : 8 frames
Codec ID : V_MPEG4/ISO/AVC
Duration : 2h 9mn
Bit rate : 7 968 Kbps
Width : 1 280 pixels
Height : 694 pixels
Display aspect ratio : 1.85:1
Frame rate mode : Constant
Frame rate : 23.976 fps
Color space : YUV
Chroma subsampling : 4:2:0
Bit depth : 8 bits
Scan type : Progressive
Bits/(Pixel*Frame) : 0.374
Stream size : 7.20 GiB (87%)
Title : eFK tRuAVC
Writing library : x264 core 148 r2597kMod e86f3a1
Encoding settings : cabac=1 / ref=8 / deblock=1:-3:-3 / analyse=0x3:0x113 / me=umh / subme=11 / psy=1 / fade_compensate=0.00 / psy_rd=1.00:0.00 / mixed_ref=1 / me_range=48 / chroma_me=1 / trellis=2 / 8x8dct=1 / cqm=0 / deadzone=21,11 / fast_pskip=0 / chroma_qp_offset=-2 / threads=12 / lookahead_threads=3 / sliced_threads=0 / nr=0 / decimate=1 / interlaced=0 / bluray_compat=0 / constrained_intra=0 / fgo=0 / bframes=16 / b_pyramid=2 / b_adapt=2 / b_bias=0 / direct=3 / weightb=1 / open_gop=0 / weightp=2 / keyint=250 / keyint_min=23 / scenecut=40 / intra_refresh=0 / rc_lookahead=60 / rc=crf / mbtree=0 / crf=17.7000 / qcomp=0.65 / qpmin=0 / qpmax=69 / qpstep=4 / vbv_maxrate=62500 / vbv_bufsize=78125 / crf_max=0.0 / nal_hrd=none / filler=0 / ip_ratio=1.40 / pb_ratio=1.30 / aq=3:0.85
Language : English
Default : Yes
Forced : No
Color range : Limited
Color primaries : BT.709
Transfer characteristics : BT.709
Matrix coefficients : BT.709
DURATION : 02:09:18.209000000
NUMBER_OF_FRAMES : 186011
NUMBER_OF_BYTES : 7901414215
_STATISTICS_WRITING_APP : mkvmerge v7.6.0 ('Garden of Dreams') 64bit built on Feb 8 2015 13:04:34
_STATISTICS_WRITING_DATE_UT : 2015-10-31 12:05:03
_STATISTICS_TAGS : BPS DURATION NUMBER_OF_FRAMES NUMBER_OF_BYTES
Audio #1
ID : 2
Format : AC-3
Format/Info : Audio Coding 3
Format profile : Dolby Digital
Mode extension : CM (complete main)
Format settings, Endianness : Big
Codec ID : A_AC3
Duration : 2h 9mn
Bit rate mode : Constant
Bit rate : 192 Kbps
Channel(s) : 2 channels
Channel positions : Front: L R
Sampling rate : 48.0 KHz
Compression mode : Lossy
Stream size : 178 MiB (2%)
Title : Dub (Варус видео)
Language : Russian
Default : Yes
Forced : No
Audio #2
ID : 3
Format : AC-3
Format/Info : Audio Coding 3
Mode extension : CM (complete main)
Format settings, Endianness : Big
Codec ID : A_AC3
Duration : 2h 9mn
Bit rate mode : Constant
Bit rate : 192 Kbps
Channel(s) : 2 channels
Channel positions : Front: L R
Sampling rate : 48.0 KHz
Compression mode : Lossy
Stream size : 178 MiB (2%)
Title : MVO (Первый канал)
Language : Russian
Default : No
Forced : No
Audio #3
ID : 4
Format : AC-3
Format/Info : Audio Coding 3
Mode extension : CM (complete main)
Format settings, Endianness : Big
Codec ID : A_AC3
Duration : 2h 9mn
Bit rate mode : Constant
Bit rate : 640 Kbps
Channel(s) : 6 channels
Channel positions : Front: L C R, Side: L R, LFE
Sampling rate : 48.0 KHz
Compression mode : Lossy
Stream size : 592 MiB (7%)
Language : English
Default : No
Forced : No
Text #1
ID : 5
Format : UTF-8
Codec ID : S_TEXT/UTF8
Codec ID/Info : UTF-8 Plain Text
Title : full
Language : English
Default : No
Forced : No
Text #2
ID : 6
Format : UTF-8
Codec ID : S_TEXT/UTF8
Codec ID/Info : UTF-8 Plain Text
Title : full SDH
Language : English
Default : No
Forced : No
Menu
00:00:00.000 : :Chapter 01
00:04:34.941 : :Chapter 02
00:08:18.206 : :Chapter 03
00:19:47.519 : :Chapter 04
00:27:29.481 : :Chapter 05
00:35:37.927 : :Chapter 06
00:41:01.333 : :Chapter 07
00:49:14.785 : :Chapter 08
00:57:59.559 : :Chapter 09
01:03:53.287 : :Chapter 10
01:10:53.374 : :Chapter 11
01:22:33.698 : :Chapter 12
01:27:43.967 : :Chapter 13
01:35:33.602 : :Chapter 14
01:42:05.994 : :Chapter 15
01:53:35.183 : :Chapter 16
02:00:12.580 : :Chapter 17
02:04:52.151 : :Chapter 18
x264 log
x264 [info]: frame I:1228 Avg QP:17.88 size:150089
x264 [info]: frame P:37393 Avg QP:18.79 size: 71755
x264 [info]: frame B:147390 Avg QP:20.99 size: 34154
x264 [info]: consecutive B-frames: 1.2% 1.4% 5.6% 16.3% 19.1% 47.7% 5.5% 1.9% 0.5% 0.3% 0.1% 0.1% 0.0% 0.0% 0.0% 0.0% 0.1%
x264 [info]: mb I I16..4: 1.3% 89.8% 8.9%
x264 [info]: mb P I16..4: 0.2% 23.5% 1.1% P16..4: 25.6% 33.8% 14.4% 0.0% 0.0% skip: 1.4%
x264 [info]: mb B I16..4: 0.0% 4.0% 0.1% B16..8: 35.5% 24.7% 5.0% direct:13.6% skip:17.1% L0:39.8% L1:38.4% BI:21.9%
x264 [info]: 8x8 transform intra:95.1% inter:62.4%
x264 [info]: direct mvs spatial:100.0% temporal:0.0%
x264 [info]: coded y,uvDC,uvAC intra: 97.8% 95.4% 75.6% inter: 56.4% 41.8% 3.8%
x264 [info]: i16 v,h,dc,p: 33% 6% 3% 58%
x264 [info]: i8 v,h,dc,ddl,ddr,vr,hd,vl,hu: 10% 6% 7% 11% 16% 14% 12% 12% 13%
x264 [info]: i4 v,h,dc,ddl,ddr,vr,hd,vl,hu: 16% 4% 3% 9% 16% 15% 13% 12% 11%
x264 [info]: i8c dc,h,v,p: 43% 21% 16% 19%
x264 [info]: Weighted P-Frames: Y:14.8% UV:7.9%
x264 [info]: ref P L0: 38.3% 11.9% 20.3% 8.6% 7.4% 5.0% 4.9% 3.0% 0.6% 0.0%
x264 [info]: ref B L0: 79.9% 10.4% 4.1% 2.4% 1.6% 1.0% 0.5%
x264 [info]: ref B L1: 95.7% 4.3%
x264 [info]: kb/s:8147.67
x264 [total]: encoded 186011 frames, 5.40 fps, 8147.67 kb/s, duration 9:34:07.53
Screenshots Comparison Цитата:
  • Большое спасибо за перевод Первого канала [url=http://***/forum/profile.php?mode=viewprofile&u=18672992]Haos-22[/url]
  • За синхронизацию перевода большая благодарность [url=http://***/forum/profile.php?mode=viewprofile&u=3190918]JUSTKANT[/url]
Скачать

Скачать торрент!

Как скачивать? · Что такое торрент? · Рейтинг и ограничения

Сайт не распространяет и не хранит электронные версии произведений, а лишь предоставляет доступ к создаваемому пользователями каталогу ссылок на торрент-файлы, которые содержат только списки хеш-сумм

[Профиль] [ЛС]
Показать сообщения:    
Ответить на тему

Текущее время: Сегодня 22:40

Часовой пояс: GMT + 4



Вы не можете начинать темы
Вы не можете отвечать на сообщения
Вы не можете редактировать свои сообщения
Вы не можете удалять свои сообщения
Вы не можете голосовать в опросах
Вы не можете прикреплять файлы к сообщениям
Вы не можете скачивать файлы