Кью / Дьявольщина / Q: The Winged Serpent (Ларри Коэн / Larry Cohen) [1982, США, ужасы, детектив, BDRemux 1080p] AVO (Александр Кашкин (Первомайский)) + Sub Eng + Original Eng + Commentary

Ответить на тему
 
Автор Сообщение

user ®

Стаж: 7 лет 7 месяцев

Сообщений: 20008

Пост Пост: #1 от 01-Ноя-2015 22:12

[Цитировать]

Кью / Дьявольщина / Q: The Winged Serpent
Страна: США
Жанр: ужасы, детектив
Год выпуска: 1982
Продолжительность: 01:32:47
Перевод: Авторский (одноголосый закадровый) Александр Кашкин (Первомайский)
Cубтитры: английские
Оригинальная аудиодорожка: английский
-
Режиссер: Ларри Коэн / Larry Cohen
В ролях: Майкл Мориарти, Кэнди Кларк, Дэвид Кэрредайн, Ричард Раундтри, Джеймс Диксон, Мэлаки МакКорт, Фред Дж. Сколлэй, Питер Хок, Рон Сей, Мэри Луиз Уэллер
-
Описание: В Нью-Йорке творятся странные вещи, работники высотных зданий пропадают, или их тела находят с оторванными головами, а очевидцы утверждают, что якобы видели огромную пернатую тварь. Одновременно городская полиция расследует серию странных убийств, во время которых с жертв методично срезалась вся кожа. Детектив Шепард в своем расследовании постепенно приходит к выводу, что убийства эти носили ритуальный характер и являлись жертвоприношениями древнему ацтекскому богу Кецалькоатлю, изображаемому на старинных фресках в виде пернатого змея...
КиноПоиск
Тип релиза: BDRemux 1080p
Контейнер: MKV
Видео: MPEG-4 AVC / NTSC 16:9 / 1920x1080 (1,78:1) / 27433 kbps / 23,976 fps / High@L4.1
Аудио 1: Russian / AC3 / 48 kHz / 2.0 Ch / 224 kbps / 16 bit / AVO / Александр Кашкин (Первомайский)
Аудио 2: English / DTS-HD Master Audio / 2.0 Ch / 48 kHz / 1631 kbps / 24-bit (DTS Core: 2.0 Ch / 48 kHz / 1509 kbps / 24-bit) / Original
Аудио 3: English / AC3 / 48 kHz / 2.0 Ch / 256 kbps / 16 bit / Commentary
Формат субтитров: softsub (SRT)
Навигация по главам: есть

Сэмпл MediaInfo
Общее
Уникальный идентификатор : 203980396086961010441165444278285875971 (0x997531FE78D59E3585A952BA2BDDBB03)
Полное имя : N:\BDRemux\Q - The Winged Serpent.1982.BDRemux.1080p.mkv
Формат : Matroska
Версия формата : Version 4 / Version 2
Размер файла : 19,2 Гбайт
Продолжительность : 1 ч. 32 м.
Режим общего битрейта : Переменный
Общий поток : 29,5 Мбит/сек
Дата кодирования : UTC 2015-11-01 10:27:17
Программа кодирования : mkvmerge v8.5.1 ('Where you lead I will follow') 64bit
Библиотека кодирования : libebml v1.3.3 + libmatroska v1.4.4
DURATION : 01:28:19.246000000
NUMBER_OF_FRAMES : 1233
NUMBER_OF_BYTES : 45663
_STATISTICS_WRITING_APP : mkvmerge v8.5.1 ('Where you lead I will follow') 64bit
_STATISTICS_WRITING_DATE_UTC : 2015-11-01 10:27:17
_STATISTICS_TAGS : BPS DURATION NUMBER_OF_FRAMES NUMBER_OF_BYTES
Видео
Идентификатор : 1
Формат : AVC
Формат/Информация : Advanced Video Codec
Профиль формата : High@L4.1
Параметр CABAC формата : Да
Параметр ReFrames формата : 3 кадра
Параметр GOP формата : M=3, N=12
Идентификатор кодека : V_MPEG4/ISO/AVC
Продолжительность : 1 ч. 32 м.
Вид битрейта : Переменный
Максимальный битрейт : 35,0 Мбит/сек
Ширина : 1920 пикселей
Высота : 1080 пикселей
Соотношение сторон : 16:9
Режим частоты кадров : Постоянный
Частота кадров : 23,976 кадра/сек
Стандарт вещания : NTSC
Цветовое пространство : YUV
Субдискретизация насыщенности : 4:2:0
Битовая глубина : 8 бит
Тип развёртки : Прогрессивная
Язык : English
Default : Да
Forced : Нет
Цветовой диапазон : Limited
Основные цвета : BT.709
Характеристики трансфера : BT.709
Коэффициенты матрицы : BT.709
Аудио #1
Идентификатор : 2
Формат : AC-3
Формат/Информация : Audio Coding 3
Расширение режима : CM (complete main)
Параметр Endianness формата : Big
Идентификатор кодека : A_AC3
Продолжительность : 1 ч. 32 м.
Вид битрейта : Постоянный
Битрейт : 224 Кбит/сек
Каналы : 2 канала
Расположение каналов : Front: L R
Частота : 48,0 КГц
Метод сжатия : С потерями
Размер потока : 149 Мбайт (1%)
Заголовок : AVO / Александр Кашкин (Первомайский)
Язык : Russian
Default : Да
Forced : Нет
Аудио #2
Идентификатор : 3
Формат : DTS
Формат/Информация : Digital Theater Systems
Профиль формата : MA / Core
Режим : 16
Параметр Endianness формата : Big
Идентификатор кодека : A_DTS
Продолжительность : 1 ч. 32 м.
Вид битрейта : Переменный
Битрейт : Неизвестно / 1509 Кбит/сек
Каналы : 2 канала
Расположение каналов : Front: L R
Частота : 48,0 КГц
Битовая глубина : 24 бит
Метод сжатия : Без потерь / Lossy
Заголовок : Original
Язык : English
Default : Нет
Forced : Нет
Аудио #3
Идентификатор : 4
Формат : AC-3
Формат/Информация : Audio Coding 3
Расширение режима : CM (complete main)
Параметр Endianness формата : Big
Идентификатор кодека : A_AC3
Продолжительность : 1 ч. 32 м.
Вид битрейта : Постоянный
Битрейт : 256 Кбит/сек
Каналы : 2 канала
Расположение каналов : Front: L R
Частота : 48,0 КГц
Метод сжатия : С потерями
Размер потока : 170 Мбайт (1%)
Заголовок : Commentary
Язык : English
Default : Нет
Forced : Нет
Текст
Идентификатор : 5
Формат : UTF-8
Идентификатор кодека : S_TEXT/UTF8
Идентификатор кодека/Информация : UTF-8 Plain Text
Заголовок : Original
Язык : English
Default : Нет
Forced : Нет
Меню
00:00:00.000 : en:
00:07:34.287 : en:
00:21:00.342 : en:
00:31:40.982 : en:
00:44:14.818 : en:
01:01:59.966 : en:
01:09:16.026 : en:
01:17:58.423 : en:
01:31:07.211 : en:
Скриншоты
Скачать

Скачать торрент!

Как скачивать? · Что такое торрент? · Рейтинг и ограничения

Сайт не распространяет и не хранит электронные версии произведений, а лишь предоставляет доступ к создаваемому пользователями каталогу ссылок на торрент-файлы, которые содержат только списки хеш-сумм

[Профиль] [ЛС]
Показать сообщения:    
Ответить на тему

Текущее время: Сегодня 01:47

Часовой пояс: GMT + 4



Вы не можете начинать темы
Вы не можете отвечать на сообщения
Вы не можете редактировать свои сообщения
Вы не можете удалять свои сообщения
Вы не можете голосовать в опросах
Вы не можете прикреплять файлы к сообщениям
Вы не можете скачивать файлы