Воин (Алексей Андрианов) [2015, драма, спорт, WEB-DLRip]

Ответить на тему
 
Автор Сообщение

user ®

Стаж: 7 лет 7 месяцев

Сообщений: 20008

Пост Пост: #1 от 01-Ноя-2015 12:54

[Цитировать]

Воин
-Год выпуска: 2015
Страна: Россия
Жанр: драма, спорт
Продолжительность: 01:27:05-Режиссер: Алексей Андрианов-В ролях: Фёдор Бондарчук, Сергей Бондарчук, Светлана Ходченкова, Владимир Яглыч, Юрий Яковлев-Суханов, Александр Новин, Александр Балуев, Мария Андреева, Владимир Селиванов, Екатерина Мельник, Ульяна Куликова-Описание:
Фильм рассказывает драматическую историю двух братьев, профессиональных спортсменов по боям ММА. Это картина о долге и жизненных ценностях, показанных сквозь призму жизни братьев и их отца - крепких и гордых людей, фильм о семье, об обидах, которые мы носим в себе десятилетиями, о боли, которую мы причиняем подчас бездумно, и о прощении, которому всегда должно найтись место в наших сердцах.- -Качество: WEB-DLRip
Формат: AVI
Видео: XviD, 720x304 (2.35:1), 2044 kbps, 25 fps, 0,374 bpp
Аудио: AC3 / 2.0 / 48 kHz / 192 kbps / 16 bit-Сэмпл: http://sendfile.su/1169908-ОтчетМедиаИнфо
General
Complete name : D:\Торенты\B0yH.2015.O.WEB-DLRip.avi
Format : AVI
Format/Info : Audio Video Interleave
File size : 1.37 GiB
Duration : 1h 27mn
Writing application : VirtualDubMod 1.5.10.3 | www.virtualdub-fr.org || (build 2550/release)
Writing library : VirtualDubMod build 2550/release
Video
ID : 0
Format : MPEG-4 Visual
Format profile : Advanced Simple@L5
Format settings, BVOP : 2
Format settings, QPel : No
Format settings, GMC : No warppoints
Format settings, Matrix : Default (MPEG)
Codec ID : XVID
Codec ID/Hint : XviD
Duration : 1h 27mn
Bit rate : 2044 Kbps
Width : 720 pixels
Height : 304 pixels
Display aspect ratio : 2.35:1
Frame rate : 25.000 fps
Color space : YUV
Chroma subsampling : 4:2:0
Bit depth : 8 bits
Scan type : Progressive
Compression mode : Lossy
Bits/(Pixel*Frame) : 0.374
Stream size : 1.24 GiB (91%)
Writing library : XviD 1.2.1 (UTC 2008-12-04)
Audio
ID : 1
Format : AC-3
Format/Info : Audio Coding 3
Mode extension : CM (complete main)
Codec ID : 2000
Duration : 1h 27mn
Bit rate mode : Constant
Bit rate : 192 Kbps
Channel(s) : 2 channels
Channel positions : Front: L R
Sampling rate : 48.0 KHz
Bit depth : 16 bits
Compression mode : Lossy
Delay relative to video : 16ms
Stream size : 120 MiB (9%)
Alignment : Split accross interleaves
Interleave, duration : 40 ms (1.00 video frame)
Interleave, preload duration : 500 ms
Скриншоты
Скачать

Скачать торрент!

Как скачивать? · Что такое торрент? · Рейтинг и ограничения

Сайт не распространяет и не хранит электронные версии произведений, а лишь предоставляет доступ к создаваемому пользователями каталогу ссылок на торрент-файлы, которые содержат только списки хеш-сумм

[Профиль] [ЛС]
Показать сообщения:    
Ответить на тему

Текущее время: Сегодня 12:39

Часовой пояс: GMT + 4



Вы не можете начинать темы
Вы не можете отвечать на сообщения
Вы не можете редактировать свои сообщения
Вы не можете удалять свои сообщения
Вы не можете голосовать в опросах
Вы не можете прикреплять файлы к сообщениям
Вы не можете скачивать файлы