Никогда не говори прощай / Kabhi Alvida Naa Kehna (Каран Джохар / Karan Johar) [2006, Индия, Драма, HDRip] MVO

Ответить на тему
 
Автор Сообщение

user ®

Стаж: 12 лет

Сообщений: 15092

Пост Пост: #1 от 31-Окт-2015 21:21

[Цитировать]

Никогда не говори «Прощай» / Kabhi Alvida Naa Kehna -Страна: Индия, Dharma Productions, Dillywood
Жанр: Драма
Год выпуска: 2006
Продолжительность: 03:12:31-Перевод: Профессиональный (многоголосый, закадровый) "Формат АВ"
Cубтитры: нет
Оригинальная аудиодорожка: нет-Режиссер: Каран Джохар / Karan Johar-В ролях: Шах Рукх Кхан, Рани Мукхерджи, Амитабх Баччан, Прити Зинта, Абхишек Баччан, Кирон Кхер, Арджун Рампал, Джон Абрахам-Описание: Дев Саран, профессиональный футболист, чья успешная карьера неожиданно заканчивается после повреждения ноги. Он женат на Рии, карьера которой идет большими шагами в гору. Майа, замужем за своим близким другом Риши, чувствует, что не любит мужа по-настоящему.
Случайная встреча Майи и Дева сближает их. И они понимают, что то, что им так не хватало в их партнерах, они нашли друг в друге. Но их отношения не могут развиваться, в их семьях это приводит к разладу…-Доп. информация:

Автор рипа: MECHANICAL ENGINEER
-
Качество видео: [url=http://***/forum/viewtopic.php?t=2979730]HDRip[/url]
Формат видео: AVI
Видео: 720 x 304; 24.000 fps; 1232 kbps; 0.23 bit/pixel
Аудио: 48 kHz; 5.1 ch; 384.00 kbps; AC3 Dolby Digital
Размер файла: 2235.11 Mb (1/2 DVD5)
MediaInfo
Format                                   : AVI
Format/Info                              : Audio Video Interleave
Format profile                           : OpenDML
File size                                : 2.18 GiB
Duration                                 : 3h 12mn
Overall bit rate                         : 1 623 Kbps
Movie name                               : Никогда не говори «Прощай» / Kabhi Alvida Naa Kehna (2006)
Director                                 : MECHANICAL ENGINEER (BDRip 1080)
Genre                                    : Drama
Writing application                      : VirtualDubMod 1.5.10.3 | www.virtualdub-fr.org || (build 2550/release)
Original source form/Name                : Драма
Copyright                                : Индия
Comment                                  : 30.10.2015
Video
ID                                       : 0
Format                                   : MPEG-4 Visual
Format profile                           : Advanced Simple@L5
Format settings, BVOP                    : 1
Format settings, QPel                    : No
Format settings, GMC                     : No warppoints
Format settings, Matrix                  : Custom
Codec ID                                 : XVID
Codec ID/Hint                            : XviD
Duration                                 : 3h 12mn
Bit rate                                 : 1 227 Kbps
Width                                    : 720 pixels
Height                                   : 304 pixels
Display aspect ratio                     : 2.35:1
Frame rate                               : 24.000 fps
Color space                              : YUV
Chroma subsampling                       : 4:2:0
Bit depth                                : 8 bits
Scan type                                : Progressive
Compression mode                         : Lossy
Bits/(Pixel*Frame)                       : 0.234
Stream size                              : 1.65 GiB (76%)
Writing library                          : XviD 65
Audio
ID                                       : 1
Format                                   : AC-3
Format/Info                              : Audio Coding 3
Mode extension                           : CM (complete main)
Format settings, Endianness              : Big
Codec ID                                 : 2000
Duration                                 : 3h 12mn
Bit rate mode                            : Constant
Bit rate                                 : 384 Kbps
Channel(s)                               : 6 channels
Channel(s)_Original                      : 5 channels
Channel positions                        : Front: L C R, Side: L R
Sampling rate                            : 48.0 KHz
Bit depth                                : 16 bits
Compression mode                         : Lossy
Stream size                              : 529 MiB (24%)
Alignment                                : Split accross interleaves
Interleave, duration                     : 42 ms (1.00 video frame)
Interleave, preload duration             : 500 ms
Скриншоты (превью - увеличение по клику): Сравнение:
[url=http://***/forum/viewtopic.php?t=4330034]http://***/forum/viewtopic.php?t=4330034[/url] => http://screenshotcomparison.com/comparison/148797 => http://screenshotcomparison.com/comparison/148860
MediaInfo конкурента
Format : AVI
Format/Info : Audio Video Interleave
Format profile : OpenDML
File size : 2.19 GiB
Duration : 3h 12mn
Overall bit rate : 1 631 Kbps
Movie name : NIKOGDA.NE.GOVORI.PROSHAI.2006.HDRip.XviD.2.19.Gb_soso4eg
Director : BwTorrents.Ru
Genre : Drama
Writing application : VirtualDubMod 1.5.10.3 | www.virtualdub-fr.org || (build 2550/release)
Original source form/Name : BwTorrents.Ru
Copyright : BwTorrents.Ru
Comment : BwTorrents.Ru
Video
ID : 0
Format : MPEG-4 Visual
Format profile : Advanced Simple@L5
Format settings, BVOP : 3
Format settings, QPel : Yes
Format settings, GMC : 3 warppoints
Format settings, Matrix : Default (MPEG)
Codec ID : DX50
Codec ID/Hint : DivX 5
Duration : 3h 12mn
Bit rate : 1 235 Kbps
Width : 720 pixels
Height : 304 pixels
Display aspect ratio : 2.35:1
Frame rate : 24.000 fps
Color space : YUV
Chroma subsampling : 4:2:0
Bit depth : 8 bits
Scan type : Progressive
Compression mode : Lossy
Bits/(Pixel*Frame) : 0.235
Stream size : 1.66 GiB (76%)
Writing library : XviD 1.2.1 (UTC 2008-12-04)
Audio
ID : 1
Format : AC-3
Format/Info : Audio Coding 3
Mode extension : CM (complete main)
Format settings, Endianness : Big
Codec ID : 2000
Duration : 3h 12mn
Bit rate mode : Constant
Bit rate : 384 Kbps
Channel(s) : 6 channels
Channel positions : Front: L C R, Side: L R, LFE
Sampling rate : 48.0 KHz
Bit depth : 16 bits
Compression mode : Lossy
Stream size : 529 MiB (24%)
Alignment : Split accross interleaves
Interleave, duration : 42 ms (1.00 video frame)
Interleave, preload duration : 500 ms
Файл конкурента не воспроизводится на двдплеерах и телевизорах из-за неубранных опций QPel : Yes и GMC: 3 warppoints.ПРИЯТНОГО ПРОСМОТРА!
Скачать

Скачать торрент! Никогда не говори прощай / Kabhi Alvida Naa Kehna (Каран Джохар / Karan Johar) [2006, Индия, Драма, HDRip] MVO

Как скачивать? · Что такое торрент? · Рейтинг и ограничения

Сайт не распространяет и не хранит электронные версии произведений, а лишь предоставляет доступ к создаваемому пользователями каталогу ссылок на торрент-файлы, которые содержат только списки хеш-сумм

[Профиль] [ЛС]
Показать сообщения:    
Ответить на тему

Текущее время: Сегодня 01:28

Часовой пояс: GMT + 4



Вы не можете начинать темы
Вы не можете отвечать на сообщения
Вы не можете редактировать свои сообщения
Вы не можете удалять свои сообщения
Вы не можете голосовать в опросах
Вы не можете прикреплять файлы к сообщениям
Вы не можете скачивать файлы