Признайте меня виновным / Find Me Guilty (Сидни Люмет / Sidney Lumet) [2006, США, Германия, драма, комедия, криминал, BDRip 1080p] MVO + DVO + AVO + VO + Sub Rus, Eng + Original Eng

Ответить на тему
 
Автор Сообщение

user ®

Стаж: 7 лет 7 месяцев

Сообщений: 20008

Пост Пост: #1 от 31-Окт-2015 21:21

[Цитировать]

Признайте меня виновным / Find Me Guilty
Страна: США, Германия
Жанр: драма, комедия, криминал
Год выпуска: 2006
Продолжительность: 02:04:44
Перевод 1: Профессиональный (многоголосый закадровый) | CP-Digital
Перевод 2: Профессиональный (двухголосый закадровый)
Перевод 3: Авторский (одноголосый закадровый) | Ю.Сербин
Перевод 4: Одноголосый закадровый | Д.Есарев
Cубтитры: Russian (CP Digital), English (SDH)
Оригинальная аудиодорожка: английский-Режиссер: Сидни Люмет / Sidney Lumet-В ролях: Вин Дизель, Алекс Рокко, Фрэнк Пьетранголаре, Ричард ДеДоменико, Джерри Грэйсон, Тони Рэй Росси, Винни Велла, Пол Боргез, Фрэнк Адонис, Николас А. Пуччио-Описание: Фильм снят на основе реальных событий. Когда полиции удается арестовать 20 членов мафиозного клана Луккези, Джеки ДиНорцио по прозвищу Толстяк Ди, уже отбывающий 30-летний тюремный срок, получает соблазнительное предложение: Джеки выйдет на волю досрочно, если даст показания против своих корешей. Но Толстяк Ди - не стукач!
На процессе, который станет самым долгим и самым скандальным судебным разбирательством в США, он будет защищать себя сам. Вступив в непредсказуемый и рискованный поединок с властями, этот наглец и остряк доведет суд до абсурда, обратит факты против своих обвинителей и добьется самого шокирующего вердикта в истории американского правосудия!-Релиз от:
-Качество видео: BDRip
Формат видео: MKV
Видео: 1920x1080 at 23.976 fps, x264@L4.1, 2pass, ~20000 kbps avg
Аудио 1: Russian: 48 kHz/24-bit, DTS, 3/2 (L,C,R,l,r) + LFE ch, ~768.00 kbps avg |Многоголосый закадровый, CP Digital|
Аудио 2: Russian: 48 kHz/16-bit, AC3, 3/2 (L,C,R,l,r) + LFE ch, ~320.00 kbps avg |Двухголосый закадровый|
Аудио 3: Russian: 48 kHz/24-bit, DTS, 3/2 (L,C,R,l,r) + LFE ch, ~1509.00 kbps avg |Авторский (одноголосый закадровый), Ю.Сербин|
Аудио 4: Russian: 48 kHz/24-bit, DTS, 3/2 (L,C,R,l,r) + LFE ch, ~1509.00 kbps avg |Одноголосый закадровый, Д.Есарев|
Аудио 5: English: 48 kHz/24-bit, DTS, 3/2 (L,C,R,l,r) + LFE ch, ~1509.00 kbps avg- -Дополнительно
Сохранены оригинальные главы как на Blu-ray.
Дорожки №1-2 подогнаны без пережатий. Спасибо Skazhutin.
Дорожки №3-4 получены наложением чистого голоса на центр декодированного DTS-HD MA.
За дорожку №3 и работу над ней спасибо Luka69.
За дорожку №4 спасибо mihey10. За работу над ней спасибо Skazhutin.
В переводах Ю.Сербина и Д.Есарева содержится ненормативная лексика.
MediaInfo
Format                                   : Matroska
Format version                           : Version 2
File size                                : 22.3 GiB
Duration                                 : 2h 4mn
Overall bit rate                         : 25.6 Mbps
Movie name                               : Find Me Guilty (2006) - Release for HDCLUB
Encoded date                             : UTC 2015-10-20 19:25:50
Writing application                      : mkvmerge v3.4.0 ('Rapunzel') сборка от May 15 2010 09:38:20
Writing library                          : libebml v0.8.0 + libmatroska v0.9.0
Video
ID                                       : 1
Format                                   : AVC
Format/Info                              : Advanced Video Codec
Format profile                           : High@L4.1
Format settings, CABAC                   : Yes
Format settings, ReFrames                : 4 frames
Codec ID                                 : V_MPEG4/ISO/AVC
Duration                                 : 2h 4mn
Bit rate                                 : 20.0 Mbps
Width                                    : 1 920 pixels
Height                                   : 1 080 pixels
Display aspect ratio                     : 16:9
Frame rate                               : 23.976 fps
Color space                              : YUV
Chroma subsampling                       : 4:2:0
Bit depth                                : 8 bits
Scan type                                : Progressive
Bits/(Pixel*Frame)                       : 0.402
Stream size                              : 17.0 GiB (76%)
Title                                    : Find Me Guilty (2006) - Release for HDCLUB
Writing library                          : x264 core 148 r2597 e86f3a1
Encoding settings                        : cabac=1 / ref=4 / deblock=1:-3:-3 / analyse=0x3:0x133 / me=umh / subme=11 / psy=1 / psy_rd=1.10:0.00 / mixed_ref=1 / me_range=32 / chroma_me=1 / trellis=2 / 8x8dct=1 / cqm=0 / deadzone=21,11 / fast_pskip=0 / chroma_qp_offset=-2 / threads=12 / lookahead_threads=2 / sliced_threads=0 / nr=0 / decimate=0 / interlaced=0 / bluray_compat=0 / constrained_intra=0 / bframes=8 / b_pyramid=2 / b_adapt=2 / b_bias=0 / direct=3 / weightb=1 / open_gop=0 / weightp=2 / keyint=240 / keyint_min=23 / scenecut=40 / intra_refresh=0 / rc_lookahead=80 / rc=2pass / mbtree=0 / bitrate=20000 / ratetol=1.0 / qcomp=0.70 / qpmin=0 / qpmax=69 / qpstep=4 / cplxblur=20.0 / qblur=0.5 / vbv_maxrate=50000 / vbv_bufsize=62500 / nal_hrd=none / filler=0 / ip_ratio=1.30 / pb_ratio=1.20 / aq=1:0.70
Language                                 : English
Default                                  : Yes
Forced                                   : No
Audio #1
ID                                       : 2
Format                                   : DTS
Format/Info                              : Digital Theater Systems
Codec ID                                 : A_DTS
Duration                                 : 2h 4mn
Bit rate mode                            : Constant
Bit rate                                 : 755 Kbps
Channel(s)                               : 6 channels
Channel positions                        : Front: L C R, Side: L R, LFE
Sampling rate                            : 48.0 KHz
Bit depth                                : 24 bits
Compression mode                         : Lossy
Stream size                              : 673 MiB (3%)
Title                                    : Многоголосый закадровый, CP Digital
Language                                 : Russian
Default                                  : No
Forced                                   : No
Audio #2
ID                                       : 3
Format                                   : AC-3
Format/Info                              : Audio Coding 3
Mode extension                           : CM (complete main)
Codec ID                                 : A_AC3
Duration                                 : 2h 4mn
Bit rate mode                            : Constant
Bit rate                                 : 320 Kbps
Channel(s)                               : 6 channels
Channel positions                        : Front: L C R, Side: L R, LFE
Sampling rate                            : 48.0 KHz
Bit depth                                : 16 bits
Compression mode                         : Lossy
Stream size                              : 286 MiB (1%)
Title                                    : Двуголосый закадровый
Language                                 : Russian
Default                                  : No
Forced                                   : No
Audio #3
ID                                       : 4
Format                                   : DTS
Format/Info                              : Digital Theater Systems
Codec ID                                 : A_DTS
Duration                                 : 2h 4mn
Bit rate mode                            : Constant
Bit rate                                 : 1 510 Kbps
Channel(s)                               : 6 channels
Channel positions                        : Front: L C R, Side: L R, LFE
Sampling rate                            : 48.0 KHz
Bit depth                                : 24 bits
Compression mode                         : Lossy
Stream size                              : 1.32 GiB (6%)
Title                                    : Одноголосый закадровый, Ю.Сербин
Language                                 : Russian
Default                                  : Yes
Forced                                   : No
Audio #4
ID                                       : 5
Format                                   : DTS
Format/Info                              : Digital Theater Systems
Codec ID                                 : A_DTS
Duration                                 : 2h 4mn
Bit rate mode                            : Constant
Bit rate                                 : 1 510 Kbps
Channel(s)                               : 6 channels
Channel positions                        : Front: L C R, Side: L R, LFE
Sampling rate                            : 48.0 KHz
Bit depth                                : 24 bits
Compression mode                         : Lossy
Stream size                              : 1.32 GiB (6%)
Title                                    : Одноголосый закадровый, Д.Есарев
Language                                 : Russian
Default                                  : No
Forced                                   : No
Audio #5
ID                                       : 6
Format                                   : DTS
Format/Info                              : Digital Theater Systems
Codec ID                                 : A_DTS
Duration                                 : 2h 4mn
Bit rate mode                            : Constant
Bit rate                                 : 1 510 Kbps
Channel(s)                               : 6 channels
Channel positions                        : Front: L C R, Side: L R, LFE
Sampling rate                            : 48.0 KHz
Bit depth                                : 24 bits
Compression mode                         : Lossy
Stream size                              : 1.32 GiB (6%)
Title                                    : English
Language                                 : English
Default                                  : No
Forced                                   : No
Text #1
ID                                       : 7
Format                                   : UTF-8
Codec ID                                 : S_TEXT/UTF8
Codec ID/Info                            : UTF-8 Plain Text
Title                                    : Russian (CP Digital)
Language                                 : Russian
Default                                  : No
Forced                                   : No
Text #2
ID                                       : 8
Format                                   : UTF-8
Codec ID                                 : S_TEXT/UTF8
Codec ID/Info                            : UTF-8 Plain Text
Title                                    : English (SDH)
Language                                 : English
Default                                  : No
Forced                                   : No
Menu
00:00:00.000                             : :Chapter 01
00:01:03.020                             : :Chapter 02
00:04:55.378                             : :Chapter 03
00:07:33.327                             : :Chapter 04
00:12:56.733                             : :Chapter 05
00:15:22.129                             : :Chapter 06
00:18:40.618                             : :Chapter 07
00:24:36.224                             : :Chapter 08
00:28:04.306                             : :Chapter 09
00:34:13.426                             : :Chapter 10
00:38:44.739                             : :Chapter 11
00:45:36.400                             : :Chapter 12
00:52:22.556                             : :Chapter 13
00:57:42.500                             : :Chapter 14
01:04:06.759                             : :Chapter 15
01:09:48.934                             : :Chapter 16
01:14:44.146                             : :Chapter 17
01:17:54.211                             : :Chapter 18
01:23:27.002                             : :Chapter 19
01:24:30.064                             : :Chapter 20
01:29:58.434                             : :Chapter 21
01:31:08.421                             : :Chapter 22
01:35:49.743                             : :Chapter 23
01:42:20.592                             : :Chapter 24
01:49:04.120                             : :Chapter 25
01:54:26.901                             : :Chapter 26
01:58:54.377                             : :Chapter 27
02:00:19.378                             : :Chapter 28
02:04:40.306                             : :Chapter 29
Скриншоты
Скачать

Скачать торрент!

Как скачивать? · Что такое торрент? · Рейтинг и ограничения

Сайт не распространяет и не хранит электронные версии произведений, а лишь предоставляет доступ к создаваемому пользователями каталогу ссылок на торрент-файлы, которые содержат только списки хеш-сумм

[Профиль] [ЛС]
Показать сообщения:    
Ответить на тему

Текущее время: Сегодня 00:42

Часовой пояс: GMT + 4



Вы не можете начинать темы
Вы не можете отвечать на сообщения
Вы не можете редактировать свои сообщения
Вы не можете удалять свои сообщения
Вы не можете голосовать в опросах
Вы не можете прикреплять файлы к сообщениям
Вы не можете скачивать файлы