Красный барон / The Red Baron (Жуль Басс / Jules Bass, Артур Ранкин мл. / Arthur Rankin Jr.) [1972, приключения, семейный, DVDRip] MVO

Ответить на тему
 
Автор Сообщение

user ®

Стаж: 12 лет

Сообщений: 15145

Пост Пост: #1 от 30-Окт-2015 08:12

[Цитировать]

Красный барон / The Red Baron
Страна: США
Жанр: приключения, семейный
Продолжительность: 00:43:51
Год выпуска: 1972
Перевод: Профессиональный (многоголосый закадровый)
Русские субтитры: нет

Режиссёр: Жуль Басс / Jules Bass, Артур Ранкин мл. / Arthur Rankin Jr.
Описание: Дочь короля Каспера Презельстейнского, принцесса София, похищена коварным принцем Генрихом Винербергским. Отец во чтобы то ни стало намерен вернуть дочь домой. Для этого он снаряжает целую воздушную эскадрилью во главе с отважным Красным Бароном. Но, как выясняется, все не так просто, как кажется на первый взгляд. И, тем не менее, Красному Барону удается, не взирая на препятствия, с честью выполнить задание.
Качество: [url=http://***/forum/viewtopic.php?t=4997724]DVDRip[/url]
Формат: AVI
Видео: 624x480 (1.30:1), 25 fps, XviD build 73 ~2131 kbps avg, 0.28 bit/pixel
Аудио: 48 kHz, AC3 Dolby Digital, 2/0 (L,R) ch, ~224 kbps
Субтитры: отсутствуют


Подробные технические данные
ОбщееПолное имя : H:\The.Red.Baron.1972.dvdrip_[745]_[teko].aviФормат : AVIФормат/Информация : Audio Video InterleaveРазмер файла : 742 МбайтПродолжительность : 43 м.Общий поток : 2366 Кбит/секПрограмма кодирования : VirtualDubMod 1.5.10.3 | www.virtualdub-fr.org || (build 2550/release)Библиотека кодирования : VirtualDubMod build 2550/release
ВидеоИдентификатор : 0Формат : MPEG-4 VisualПрофиль формата : Advanced Simple@L5Параметр BVOP формата : 2Параметр QPel формата : НетПараметр GMC формата : Без точки переходаПараметр матрицы формата : ВыборочнаяИдентификатор кодека : XVIDИдентификатор кодека/Подсказка : XviDПродолжительность : 43 м.Битрейт : 2132 Кбит/секШирина : 624 пикселяВысота : 480 пикселейСоотношение сторон : 4:3Частота кадров : 25,000 кадров/секЦветовое пространство : YUVСубдискретизация насыщенности : 4:2:0Битовая глубина : 8 битТип развёртки : ПрогрессивнаяМетод сжатия : С потерямиБит/(Пиксели*Кадры) : 0.285Размер потока : 669 Мбайт (90%)Библиотека кодирования : XviD 73
АудиоИдентификатор : 1Формат : AC-3Формат/Информация : Audio Coding 3Расширение режима : CM (complete main)Параметр Endianness формата : BigИдентификатор кодека : 2000Продолжительность : 43 м.Вид битрейта : ПостоянныйБитрейт : 224 Кбит/секКаналы : 2 каналаРасположение каналов : Front: L RЧастота : 48,0 КГцБитовая глубина : 16 битМетод сжатия : С потерямиРазмер потока : 70,3 Мбайт (9%)Выравнивание : Разделение по промежуткамПродолжительность промежутка : 40 мс. (1,00 видеокадр)Время предзагрузки промежутка : 500 мс.
Скриншоты Релиз группы:
[url=http://***/forum/viewtopic.php?t=1677970] [/url]
--
Скачать

Скачать торрент! Красный барон / The Red Baron (Жуль Басс / Jules Bass, Артур Ранкин мл. / Arthur Rankin Jr.) [1972, приключения, семейный, DVDRip] MVO

Как скачивать? · Что такое торрент? · Рейтинг и ограничения

Сайт не распространяет и не хранит электронные версии произведений, а лишь предоставляет доступ к создаваемому пользователями каталогу ссылок на торрент-файлы, которые содержат только списки хеш-сумм

[Профиль] [ЛС]
Показать сообщения:    
Ответить на тему

Текущее время: Сегодня 11:49

Часовой пояс: GMT + 4



Вы не можете начинать темы
Вы не можете отвечать на сообщения
Вы не можете редактировать свои сообщения
Вы не можете удалять свои сообщения
Вы не можете голосовать в опросах
Вы не можете прикреплять файлы к сообщениям
Вы не можете скачивать файлы