Голос улиц / Прямиком из Комптона / Straight Outta Compton (Ф. Гэри Грей / F. Gary Gray) [2015, США, драма, биография, музыка, WEB-DLRip] VO + Sub Rus

Ответить на тему
 
Автор Сообщение

user ®

Стаж: 7 лет 7 месяцев

Сообщений: 20008

Пост Пост: #1 от 29-Окт-2015 16:45

[Цитировать]

Голос улиц (Прямиком из Комптона) / Straight Outta Compton
Страна: США
Жанр: драма, биография, музыка
Год выпуска: 2015
Продолжительность: 02:24:00
Перевод: Одноголосый закадровый
Cубтитры: Русские вшитые (на слова к рэпу - присутствует ненормативная лексика)
Оригинальная аудиодорожка: нет
Режиссер: Ф. Гэри Грей/F. Gary Gray
В ролях: О’Ши Джексон мл., Кори Хоукинс, Джейсон Митчелл, Нил Браун мл., Элдис Ходж, Марлон Йэтс мл., Р. Маркус Тейлор, Карра Паттерсон, Александра Шипп, Пол Джаматти
Описание: В середине восьмидесятых годов пятеро молодых ребят с улиц Комптона объединились в хип-хоп группу N.W.A, чтобы рассказать всему миру о насущных проблемах и опасностях, притаившихся на улицах. Агрессивный подход и затрагиваемые трепетные темы текстов помогли простым парням прямиком из Комптона подняться на вершину музыкальной иерархии жанра. Все они росли на улицах, где продавали наркотики, состояли в бандах и принимали участие в криминальных разборках, а теперь у ребят появилась возможность рассказать свои суровые истории всем.
Сэмпл: http://multi-up.com/1073259
Качество видео: WEB-DLRip
Формат видео: AVI
Видео: 720x304 (2.37:1), 25 fps, XviD MPEG-4 ~1228 kbps avg, 0.22 bit/pixel
Аудио: 48 kHz, AC3 Dolby Digital, 2/0 (L,R) ch, ~192 kbps
MediaInfo
General
Complete name : G:\Голос улиц (Прямиком из Комптона).avi
Format : AVI
Format/Info : Audio Video Interleave
File size : 1.44 GiB
Duration : 2h 24mn
Overall bit rate : 1 430 Kbps
Writing application : VirtualDubMod 1.5.10.2 (build 2540/release)
Writing library : VirtualDubMod build 2540/release
Video
ID : 0
Format : MPEG-4 Visual
Format profile : Advanced Simple@L5
Format settings, BVOP : 2
Format settings, QPel : No
Format settings, GMC : No warppoints
Format settings, Matrix : Default (MPEG)
Muxing mode : Packed bitstream
Codec ID : XVID
Codec ID/Hint : XviD
Duration : 2h 24mn
Bit rate : 1 229 Kbps
Width : 720 pixels
Height : 304 pixels
Display aspect ratio : 2.35:1
Frame rate : 25.000 fps
Color space : YUV
Chroma subsampling : 4:2:0
Bit depth : 8 bits
Scan type : Progressive
Compression mode : Lossy
Bits/(Pixel*Frame) : 0.225
Stream size : 1.24 GiB (86%)
Writing library : XviD 64
Audio
ID : 1
Format : AC-3
Format/Info : Audio Coding 3
Mode extension : CM (complete main)
Format settings, Endianness : Big
Codec ID : 2000
Duration : 2h 24mn
Bit rate mode : Constant
Bit rate : 192 Kbps
Channel(s) : 2 channels
Channel positions : Front: L R
Sampling rate : 48.0 KHz
Compression mode : Lossy
Stream size : 198 MiB (13%)
Alignment : Split accross interleaves
Interleave, duration : 40 ms (1.00 video frame)
Interleave, preload duration : 500 ms
Скриншот c названием фильма Скриншоты
Скачать

Скачать торрент!

Как скачивать? · Что такое торрент? · Рейтинг и ограничения

Сайт не распространяет и не хранит электронные версии произведений, а лишь предоставляет доступ к создаваемому пользователями каталогу ссылок на торрент-файлы, которые содержат только списки хеш-сумм

[Профиль] [ЛС]
Показать сообщения:    
Ответить на тему

Текущее время: Сегодня 04:15

Часовой пояс: GMT + 4



Вы не можете начинать темы
Вы не можете отвечать на сообщения
Вы не можете редактировать свои сообщения
Вы не можете удалять свои сообщения
Вы не можете голосовать в опросах
Вы не можете прикреплять файлы к сообщениям
Вы не можете скачивать файлы