Вне/себя / Self/less (Тарсем Сингх / Tarsem Singh) [2015, США, фантастика, триллер, боевик, BDRip-AVC] Dub + Original (Eng)

Ответить на тему
 
Автор Сообщение

user ®

Стаж: 7 лет 7 месяцев

Сообщений: 20008

Пост Пост: #1 от 29-Окт-2015 10:33

[Цитировать]

Вне/себя
Self/less
«У бессмертия есть побочные эффекты»
NOR Transfer



Страна: США
Жанр: фантастика, триллер, боевик
Год выпуска: 2015
Продолжительность: 01:52:12
Перевод: Профессиональный (полное дублирование) [Лицензия BD RUS]
Cубтитры: нет
Оригинальная аудиодорожка: Английский
Режиссер: Тарсем Сингх / Tarsem Singh
В ролях: Райан Рейнольдс, Бен Кингсли, Натали Мартинес, Мэттью Гуд, Виктор Гарбер, Дерек Люк, Джейни-Линн Кинчен, Мелора Хардин, Мишель Докери, Сэмюэл Пейдж, Брендан МакКарти, Томас Мерфи
Описание:
Один ученый нашел способ победить смерть с помощью имплантации своего сознания в молодое тело, созданное методом генной инженерии. Операция эта дорогостоящая и проводится подпольно, а поэтому доступна лишь ограниченному кругу лиц. Умирающий пожилой бизнесмен решается на это и получает возможность прожить еще одну жизнь. Однако когда ему приоткрывается тайна происхождения нового тела, за ним начинает охоту секретная организация, которая не остановится ни перед чем, чтобы защитить свои интересы.

Релиз:
Автор рипа: Stalker oK
Сэмпл
Качество видео: BDRip-AVC [Blu-ray Disc 1080p BLUEBIRD]
Формат видео: MKV
Видео кодек: AVC
Аудио кодек: AC3
Видео: 1773 Кбит/сек, 1120*476 (2,35:1), в 23,976 кадр/сек, AVC
Аудио #1: Russian, 448 Кбит/сек, 48,0 КГц, 16 бит, 6 канала(ов), AC-3
Аудио #2: English, 448 Кбит/сек, 48,0 КГц, 16 бит, 6 канала(ов), AC-3
Навигация по главам: есть

MediaInfo
Общее
Уникальный идентификатор : 179972476644259676896863583089089200418 (0x8765702D72842FA5AF3692E0BAB24122)
Полное имя : N:\Rips\Self.less\Self.less.2015.BDRip-AVC.Dub.2.18Gb...stalkerok.new-team.mkv
Формат : Matroska
Размер файла : 2,18 Гбайт
Продолжительность : 1 ч. 56 м.
Общий поток : 2665 Кбит/сек
Название фильма : Self/less (2015) (New-Team) (Rip by Stalker oK)
Дата кодирования : UTC 2015-10-28 20:53:09
Программа кодирования : mkvmerge v7.9.0 ('Birds') 64bit
Библиотека кодирования : libebml v1.3.1 + libmatroska v1.4.2
Видео
Идентификатор : 1
Формат : AVC
Формат/Информация : Advanced Video Codec
Профиль формата : High@L4.1
Параметр CABAC формата : Да
Параметр ReFrames формата : 12 кадры
Идентификатор кодека : V_MPEG4/ISO/AVC
Продолжительность : 1 ч. 56 м.
Битрейт : 1773 Кбит/сек
Ширина : 1120 пикс.
Высота : 476 пикс.
Соотношение сторон : 2,35:1
Частота кадров : 23,976 кадр/сек
Цветовое пространство : YUV
Подвыборка цветности : 4:2:0
Битовая глубина : 8 бит
Тип развёртки : Прогрессивная
Бит/(Пиксели*Кадры) : 0.139
Размер потока : 1,40 Гбайт (64%)
Заголовок : Self/less (2015) NOR Transfer
Библиотека кодирования : x264 core 146 r2538kMod 121396c
Настройки программы : cabac=1 / ref=12 / deblock=1:-3:-3 / analyse=0x3:0x133 / me=umh / subme=11 / psy=1 / fade_compensate=0.00 / psy_rd=1.00:0.12 / mixed_ref=1 / me_range=48 / chroma_me=1 / trellis=2 / 8x8dct=1 / cqm=0 / deadzone=21,11 / fast_pskip=0 / chroma_qp_offset=-3 / threads=12 / lookahead_threads=3 / sliced_threads=0 / nr=0 / decimate=0 / interlaced=0 / bluray_compat=0 / constrained_intra=0 / fgo=0 / bframes=13 / b_pyramid=2 / b_adapt=2 / b_bias=0 / direct=3 / weightb=1 / open_gop=0 / weightp=2 / keyint=240 / keyint_min=23 / scenecut=40 / intra_refresh=0 / rc_lookahead=60 / rc=2pass / mbtree=0 / bitrate=1773 / ratetol=1.0 / qcomp=0.70 / qpmin=0 / qpmax=69 / qpstep=4 / cplxblur=20.0 / qblur=0.5 / vbv_maxrate=50000 / vbv_bufsize=62500 / nal_hrd=none / filler=0 / ip_ratio=1.40 / pb_ratio=1.30 / aq=3:0.85
Аудио #1
Идентификатор : 2
Формат : AC-3
Формат/Информация : Audio Coding 3
Расширение режима : CM (complete main)
Идентификатор кодека : A_AC3
Продолжительность : 1 ч. 56 м.
Вид битрейта : Постоянный
Битрейт : 448 Кбит/сек
Канал(ы) : 6 канала(ов)
Расположение каналов : Front: L C R, Side: L R, LFE
Частота : 48,0 КГц
Битовая глубина : 16 бит
Метод сжатия : С потерями
Размер потока : 375 Мбайт (17%)
Язык : Russian
Аудио #2
Идентификатор : 3
Формат : AC-3
Формат/Информация : Audio Coding 3
Расширение режима : CM (complete main)
Идентификатор кодека : A_AC3
Продолжительность : 1 ч. 56 м.
Вид битрейта : Постоянный
Битрейт : 448 Кбит/сек
Канал(ы) : 6 канала(ов)
Расположение каналов : Front: L C R, Side: L R, LFE
Частота : 48,0 КГц
Битовая глубина : 16 бит
Метод сжатия : С потерями
Размер потока : 375 Мбайт (17%)
Язык : English
Меню
00:00:00.000 : en:Chapter 1
00:06:45.446 : en:Chapter 2
00:16:32.074 : en:Chapter 3
00:28:16.403 : en:Chapter 4
00:36:17.800 : en:Chapter 5
00:43:58.594 : en:Chapter 6
00:58:35.345 : en:Chapter 7
01:06:49.380 : en:Chapter 8
01:15:12.466 : en:Chapter 9
01:27:23.947 : en:Chapter 10
01:32:20.159 : en:Chapter 11
01:43:49.348 : en:Chapter 12
Blu-ray NOR vs Blu-ray RUS Скриншоты
Скачать

Скачать торрент!

Как скачивать? · Что такое торрент? · Рейтинг и ограничения

Сайт не распространяет и не хранит электронные версии произведений, а лишь предоставляет доступ к создаваемому пользователями каталогу ссылок на торрент-файлы, которые содержат только списки хеш-сумм

[Профиль] [ЛС]
Показать сообщения:    
Ответить на тему

Текущее время: Сегодня 16:13

Часовой пояс: GMT + 4



Вы не можете начинать темы
Вы не можете отвечать на сообщения
Вы не можете редактировать свои сообщения
Вы не можете удалять свои сообщения
Вы не можете голосовать в опросах
Вы не можете прикреплять файлы к сообщениям
Вы не можете скачивать файлы