Парень с нашего кладбища (Илья Чижиков, Антон Чижиков) [2015, комедия, триллер, WEB-DLRip]

Ответить на тему
 
Автор Сообщение

user ®

Стаж: 7 лет 7 месяцев

Сообщений: 20008

Пост Пост: #1 от 28-Окт-2015 12:54

[Цитировать]

Парень с нашего кладбищаСтрана: Россия, Кинокомпания CTB
Год выхода: 2015
Жанр: триллер, комедия
Продолжительность: 01:27:22-Режиссер: Илья Чижиков, Антон Чижиков-В ролях: Александр Паль, Игорь Жижикин, Владимир Сычев, Александр Ильин, Кристина Казинская, Полина Шашуро, Алексей Онежен, Евгений Волоцкий
--Двадцатипятилетний провинциальный парень Коля приезжает в Москву к своему дяде.
Ему нужно как можно быстрее отдать долг, который висит на нем с прошлого места работы,он готов работать каждый день. Точнее, каждую ночь.
Так как дядя устраивает племянника ночным сторожем на… кладбище. Новый сторож приступает к первому дежурству, но к тому,
что происходит на кладбище, когда стемнеет, он оказывается не готов. А впереди еще не одна ночь,
и Коле нужно сделать выбор: разобраться с таинственными гостями или сбежать.
-
-
Сэмпл: http://sendfile.su/1168188
Качество видео: WEB-DLRip
Исходник: WEB-DLRip 720p
Формат видео: AVI
Видео: XviD (1.2.2) 1050kbps 704x400 24.000fps
Аудио: MP3 128kbps 2ch 16bit 48000khz


MediaInfo
MediaInfoLib - v0.7.62
General
Complete name : E:\Контарик\Downloads\Мои раздачи\Парень с нашего кладбища. 2015г. WEB-DLRip. - kontarik81.avi
Format : AVI
Format/Info : Audio Video Interleave
File size : 742 MiB
Duration : 1h 27mn
Overall bit rate mode : Variable
Overall bit rate : 1 188 Kbps
Writing application : VirtualDubMod 1.5.10.3 | www.virtualdub-fr.org || (build 2550/release)
Writing library : VirtualDubMod build 2550/release
Video
ID : 0
Format : MPEG-4 Visual
Format profile : Advanced Simple@L5
Format settings, BVOP : 1
Format settings, QPel : No
Format settings, GMC : No warppoints
Format settings, Matrix : Default (H.263)
Codec ID : XVID
Codec ID/Hint : XviD
Duration : 1h 27mn
Bit rate : 1 054 Kbps
Width : 704 pixels
Height : 400 pixels
Display aspect ratio : 16:9
Frame rate : 24.000 fps
Color space : YUV
Chroma subsampling : 4:2:0
Bit depth : 8 bits
Scan type : Progressive
Compression mode : Lossy
Bits/(Pixel*Frame) : 0.156
Stream size : 658 MiB (89%)
Writing library : XviD 1.2.1 (UTC 2008-12-04)
Audio
ID : 1
Format : MPEG Audio
Format version : Version 1
Format profile : Layer 3
Mode : Joint stereo
Mode extension : MS Stereo
Codec ID : 55
Codec ID/Hint : MP3
Duration : 1h 27mn
Bit rate mode : Variable
Bit rate : 122 Kbps
Nominal bit rate : 128 Kbps
Channel(s) : 2 channels
Sampling rate : 48.0 KHz
Compression mode : Lossy
Stream size : 76.0 MiB (10%)
Alignment : Aligned on interleaves
Interleave, duration : 24 ms (0.58 video frame)
Interleave, preload duration : 151 ms
Writing library : LAME3.99r
Encoding settings : -m j -V 4 -q 2 -lowpass 17 --abr 128
Скриншот c названием фильма Скриншоты
Скачать

Скачать торрент!

Как скачивать? · Что такое торрент? · Рейтинг и ограничения

Сайт не распространяет и не хранит электронные версии произведений, а лишь предоставляет доступ к создаваемому пользователями каталогу ссылок на торрент-файлы, которые содержат только списки хеш-сумм

[Профиль] [ЛС]
Показать сообщения:    
Ответить на тему

Текущее время: Сегодня 10:48

Часовой пояс: GMT + 4



Вы не можете начинать темы
Вы не можете отвечать на сообщения
Вы не можете редактировать свои сообщения
Вы не можете удалять свои сообщения
Вы не можете голосовать в опросах
Вы не можете прикреплять файлы к сообщениям
Вы не можете скачивать файлы