Сатисфакция (Анна Матисон) [2010, драма, BDRip]

Ответить на тему
 
Автор Сообщение

user ®

Стаж: 7 лет 7 месяцев

Сообщений: 20008

Пост Пост: #1 от 27-Окт-2015 21:21

[Цитировать]

Сатисфакция
Год выпуска: 2010
Жанр: драма
Продолжительность: 01:37:10.625 (139935 frames)
Субтитры: нет
Режиссер: Анна Матисон
В ролях: Евгений Гришковец, Денис Бургазлиев, Олег Малышев, Евгений Солонинкин, Павел Харланчук, Михаил Мешакин, Анастасия Шинкаренко, Алексей Орлов, Анна Дружинина, Родион Бровкин
Описание: Главный герой Александр, крупный бизнесмен и влиятельный человек в своем городе, после напряженного рабочего дня везет своего друга и помощника Дмитрия в ресторан. Но к удивлению Дмитрия, там их не ждут ни деловые партнеры, ни друзья — в помещении вообще нет посетителей. Мужчинам придется провести время в компании молчаливых официантов и многочисленных бутылок с содержимым различной крепости. Когда дверь запирается изнутри, у двух героев на выяснение отношений остается целая ночь.
Качество: BDRip
Формат: AVI
Видео кодек: XviD
Аудио кодек: АС3
Видео: 720x384 (1.88:1), 24 fps, XviD build 65 ~1690 kbps avg, 0.25 bit/pixel
Аудио: 48 kHz, AC3 Dolby Digital, 3/2 (L,C,R,l,r) + LFE ch, ~448.00 kbps avg
Скриншоты Медиаинфо
D:\002 мои раздачи\Сатисфакция 1,46\satisfakciya_1.46_[torrents.ru]_by_bm11.avi
General
Complete name : D:\002 мои раздачи\Сатисфакция 1,46\satisfakciya_1.46_[torrents.ru]_by_bm11.avi
Format : AVI
Format/Info : Audio Video Interleave
File size : 1.46 GiB
Duration : 1h 37mn
Overall bit rate : 2 148 Kbps
Director : bm11
Writing application : VirtualDubMod 1.5.10.2 (build 2540/release)
Video
Format : MPEG-4 Visual
Format profile : Streaming Video@L1
Format settings, BVOP : Yes
Format settings, QPel : No
Format settings, GMC : No warppoints
Format settings, Matrix : Custom
Codec ID : XVID
Codec ID/Hint : XviD
Duration : 1h 37mn
Bit rate : 1 691 Kbps
Width : 720 pixels
Height : 384 pixels
Display aspect ratio : 1.875
Frame rate : 24.000 fps
Resolution : 24 bits
Colorimetry : 4:2:0
Scan type : Progressive
Bits/(Pixel*Frame) : 0.255
Stream size : 1.15 GiB (79%)
Writing library : XviD 65
Audio
Format : AC-3
Format/Info : Audio Coding 3
Codec ID : 2000
Duration : 1h 37mn
Bit rate mode : Constant
Bit rate : 448 Kbps
Channel(s) : 6 channels
Channel positions : Front: L C R, Surround: L R, LFE
Sampling rate : 48.0 KHz
Stream size : 311 MiB (21%)
Alignment : Split accross interleaves
Interleave, duration : 42 ms (1.00 video frame)
Interleave, preload duration : 500 ms
Исходник
[url=http://***/forum/viewtopic.php?t=5079524]http://***/forum/viewtopic.php?t=5079524[/url]
Семпл Релиз группы:
[url=http://***/forum/viewtopic.php?t=1677970] [/url]
--
Скачать

Скачать торрент!

Как скачивать? · Что такое торрент? · Рейтинг и ограничения

Сайт не распространяет и не хранит электронные версии произведений, а лишь предоставляет доступ к создаваемому пользователями каталогу ссылок на торрент-файлы, которые содержат только списки хеш-сумм

[Профиль] [ЛС]
Показать сообщения:    
Ответить на тему

Текущее время: Сегодня 06:10

Часовой пояс: GMT + 4



Вы не можете начинать темы
Вы не можете отвечать на сообщения
Вы не можете редактировать свои сообщения
Вы не можете удалять свои сообщения
Вы не можете голосовать в опросах
Вы не можете прикреплять файлы к сообщениям
Вы не можете скачивать файлы