Партизанская снегурочка / Партизанська снігуронька (Ирина Гурвич) [1981, Рисованный мультфильм, WEBRip]

Ответить на тему
 
Автор Сообщение

user ®

Стаж: 7 лет 7 месяцев

Сообщений: 20008

Пост Пост: #1 от 27-Окт-2015 02:48

[Цитировать]

Партизанская снегурочка / Партизанська снігуронька
Страна: CCCР
Жанр: Рисованный мультфильм
Продолжительность: 00:09:58
Год выпуска: 1981
Русские субтитры: нет
Режиссёр: Ирина Гурвич
Описание: Из большой деревенской семьи в избе зимуют только дед и внучка. Её отец с матерью на фронте, а бабушка, вероятно, погибла. В деревне немцы. Дед отпускает внучку в лес с донесением для партизан. По пути девочка встречает зайца, а подойдя к мосту через речку, видит кружащих воронов и приближающиеся с другого берега немецкие фургоны…
Доп. информация: «Киевнаучфильм»
сценаристы:Ирина Гурвич
художник-постановщик:И. Дивишек
художники-мультипликаторы:Э. Перетятько,Нина Чурилова
И. Бородавк:Михаил Титов
оператор:Анатолий Гаврилов
директор:Иван Мазепа
композитор:Антон Муха
звукооператор:И. Мойжес
редактор:Светлана Куценко
Раздача группы:
работа со звуком by dvdss
Качество: WEBRip
Формат: AVI
Видео: 640x480 (1.33:1), 25 fps, XviD build 46 ~2192 kbps avg, 0.28 bit/pixel
Аудио: 48 kHz, AC3 Dolby Digital, 1/0 (C) ch, ~128.00 kbps avg
Субтитры: нет
Подробные технические данные
Format : AVIFormat/Info : Audio Video InterleaveFile size : 166 MiBDuration : 9mn 58sOverall bit rate : 2 330 KbpsMovie name : Партизанська снігуронька (1981)Writing application : VirtualDubModRus 1.5.10.2 (build 2542/release)Writing library : VirtualDubMod build 2542/release
VideoID : 0Format : MPEG-4 VisualFormat profile : Simple@L3Format settings, BVOP : NoFormat settings, QPel : NoFormat settings, GMC : No warppointsFormat settings, Matrix : Default (H.263)Codec ID : XVIDCodec ID/Hint : XviDDuration : 9mn 58sBit rate : 2 192 KbpsWidth : 640 pixelsHeight : 480 pixelsDisplay aspect ratio : 4:3Frame rate : 25.000 fpsColor space : YUVChroma subsampling : 4:2:0Bit depth : 8 bitsScan type : ProgressiveCompression mode : LossyBits/(Pixel*Frame) : 0.285Stream size : 156 MiB (94%)Writing library : XviD 1.1.2 (UTC 2006-11-01)
AudioID : 1Format : AC-3Format/Info : Audio Coding 3Mode extension : CM (complete main)Format settings, Endianness : BigCodec ID : 2000Duration : 9mn 58sBit rate mode : ConstantBit rate : 128 KbpsChannel(s) : 1 channelChannel positions : Front: CSampling rate : 48.0 KHzBit depth : 16 bitsCompression mode : LossyStream size : 9.13 MiB (5%)Alignment : Split accross interleavesInterleave, duration : 40 ms (1.00 video frame)Interleave, preload duration : 500 ms
сравнение с VHSRip с русским названием и титрами
Сравнение с [url=http://***/forum/viewtopic.php?t=2642197]http://***/forum/viewtopic.php?t=2642197[/url]
Тут -- http://screenshotcomparison.com/comparison/148387/picture:0
Скриншоты
Скачать

Скачать торрент!

Как скачивать? · Что такое торрент? · Рейтинг и ограничения

Сайт не распространяет и не хранит электронные версии произведений, а лишь предоставляет доступ к создаваемому пользователями каталогу ссылок на торрент-файлы, которые содержат только списки хеш-сумм

[Профиль] [ЛС]
Показать сообщения:    
Ответить на тему

Текущее время: Сегодня 06:03

Часовой пояс: GMT + 4



Вы не можете начинать темы
Вы не можете отвечать на сообщения
Вы не можете редактировать свои сообщения
Вы не можете удалять свои сообщения
Вы не можете голосовать в опросах
Вы не можете прикреплять файлы к сообщениям
Вы не можете скачивать файлы