Подарок / The Gift (Джоэл Эдгертон / Joel Edgerton) [2015, США, Триллер, детектив, BDRip] Dub (Line) + Original (Eng)

Ответить на тему
 
Автор Сообщение

user ®

Стаж: 7 лет 7 месяцев

Сообщений: 20008

Пост Пост: #1 от 27-Окт-2015 02:48

[Цитировать]

Подарок / The Gift
«Грехи прошлого становятся твоим настоящим»
- Год выпуска: 2015
Выпущено: Австралия, США / Blue-Tongue Films
Жанр: триллер, детектив
Продолжительность: 01:43:18
Перевод: Профессиональный (полное дублирование) Line + Оригинальная дорожка
Cубтитры: нет-Режиссер:
Джоэл Эдгертон / Joel Edgerton-В ролях:
Джейсон Бейтман (Simon), Ребекка Холл (Robyn), Джоэл Эдгертон (Gordo), Эллисон Толман (Lucy), Тим Гриффин (Kevin «KK» Keelor), Бизи Филиппс (Duffy), Адам Лазарр-Уайт (Ron), Бо Напп (Detective Walker), Уенделл Пирс (Detective Mills), Мирра Фолкс (Wendy Dale)-Описание:
В жизнь Саймона врывается человек из далекого прошлого — его бывший одноклассник Гордо. Человек дружелюбный, немного неуклюжий, но с большими странностями. До встречи с одноклассником Саймон и его молодая супруга Робин считали свою жизнь идеальной, однако Гордо вносит в жизнь молодоженов свои коррективы.-| IMDB | КиноПоиск | Сэмпл |-Качество: BDRip [The.Gift.2015.1080p.BluRay.AVC.DTS-HD.MA.5.1-RARBG]
Формат: AVI
Видео: 720x304 (2.37:1), 23.976 fps, XviD build 67 ~1611 kbps avg, 0.31 bit/pixel
Аудио #1: 48 kHz, AC3 Dolby Digital, 2/0 (L,R) ch, ~192.00 kbps avg (RUS)
Аудио #2: 48 kHz, AC3 Dolby Digital, 2/0 (L,R) ch, ~192.00 kbps avg (ENG)
-Скриншоты MediaInfo
General
Complete name                            : D:\Podarok_2015_BDRip_Line_by_Dalemake.avi
Format                                   : AVI
Format/Info                              : Audio Video Interleave
File size                                : 1.46 GiB
Duration                                 : 1h 48mn
Overall bit rate                         : 1 934 Kbps
Writing application                      : VirtualDubMod 1.5.10.3 | www.virtualdub-fr.org || (build 2550/release)
Writing library                          : VirtualDubMod build 2550/release
Video
ID                                       : 0
Format                                   : MPEG-4 Visual
Format profile                           : Advanced Simple@L5
Format settings, BVOP                    : 1
Format settings, QPel                    : No
Format settings, GMC                     : No warppoints
Format settings, Matrix                  : Custom
Codec ID                                 : XVID
Codec ID/Hint                            : XviD
Duration                                 : 1h 48mn
Bit rate                                 : 1 536 Kbps
Width                                    : 720 pixels
Height                                   : 304 pixels
Display aspect ratio                     : 2.35:1
Frame rate                               : 23.976 fps
Color space                              : YUV
Chroma subsampling                       : 4:2:0
Bit depth                                : 8 bits
Scan type                                : Progressive
Compression mode                         : Lossy
Bits/(Pixel*Frame)                       : 0.293
Stream size                              : 1.16 GiB (79%)
Writing library                          : XviD 67
Audio #1
ID                                       : 1
Format                                   : AC-3
Format/Info                              : Audio Coding 3
Mode extension                           : CM (complete main)
Format settings, Endianness              : Big
Codec ID                                 : 2000
Duration                                 : 1h 48mn
Bit rate mode                            : Constant
Bit rate                                 : 192 Kbps
Channel(s)                               : 2 channels
Channel positions                        : Front: L R
Sampling rate                            : 48.0 KHz
Bit depth                                : 16 bits
Compression mode                         : Lossy
Stream size                              : 149 MiB (10%)
Alignment                                : Split accross interleaves
Interleave, duration                     : 42 ms (1.00 video frame)
Interleave, preload duration             : 500 ms
Audio #2
ID                                       : 2
Format                                   : AC-3
Format/Info                              : Audio Coding 3
Mode extension                           : CM (complete main)
Format settings, Endianness              : Big
Codec ID                                 : 2000
Duration                                 : 1h 48mn
Bit rate mode                            : Constant
Bit rate                                 : 192 Kbps
Channel(s)                               : 2 channels
Channel positions                        : Front: L R
Sampling rate                            : 48.0 KHz
Bit depth                                : 16 bits
Compression mode                         : Lossy
Stream size                              : 149 MiB (10%)
Alignment                                : Split accross interleaves
Interleave, duration                     : 42 ms (1.00 video frame)
Interleave, preload duration             : 500 ms
Скачать

Скачать торрент!

Как скачивать? · Что такое торрент? · Рейтинг и ограничения

Сайт не распространяет и не хранит электронные версии произведений, а лишь предоставляет доступ к создаваемому пользователями каталогу ссылок на торрент-файлы, которые содержат только списки хеш-сумм

[Профиль] [ЛС]
Показать сообщения:    
Ответить на тему

Текущее время: Сегодня 12:32

Часовой пояс: GMT + 4



Вы не можете начинать темы
Вы не можете отвечать на сообщения
Вы не можете редактировать свои сообщения
Вы не можете удалять свои сообщения
Вы не можете голосовать в опросах
Вы не можете прикреплять файлы к сообщениям
Вы не можете скачивать файлы