Пиксели / Pixels (Крис Коламбус / Chris Columbus) [2015 г., США, фантастика, боевик, комедия, BDRip] Dub + Ukr + Original Eng + Sub (Rus, Ukr, Eng)

Ответить на тему
 
Автор Сообщение

user ®

Стаж: 7 лет 7 месяцев

Сообщений: 20008

Пост Пост: #1 от 26-Окт-2015 23:42

[Цитировать]

-Пиксели / Pixels (2015) BDRip«It's time to save the World» Страна: США, Китай, Канада
Студия: 1492 Pictures, China Film Co., Columbia Pictures, Happy Madison Productions
Жанр: фантастика, боевик, комедия
Год выпуска: 2015
Продолжительность: 01:45:49-Перевод: Профессиональный (полное дублирование) BD EUR
Оригинальная аудиодорожка: английская
Cубтитры: русские, украинские, английские
Режиссер: Крис Коламбус / Chris Columbus
В ролях: Адам Сэндлер, Кевин Джеймс, Мишель Монахэн, Питер Динклэйдж, Джош Гад, Брайан Кокс, Мэттью Линтц, Шон Бин, Джейн Краковски, Дэн Эйкройд
Описание: Очередное вторжение инопланетян на Землю… Вы скажете: «Что может быть банальнее?!». Да, если бы на этот раз они не предстали в виде героев вселенски популярных компьютерных игр. Сражаться с пришельцами призвана команда бывших геймеров, в числе которых: Президент Соединенных Штатов Америки; карлик-зэк, большой ценитель прекрасного пола; зануда-параноик, свято верящий в теорию вселенского заговора; профессиональный неудачник и циник, в детстве подававший большие надежды. А помогает новоиспеченным героям очаровательная ученая фея.-
Сэмпл: скачать-Релиз от -
Автор рипа: Elheym
Качество: BDRip (источник: / Blu-ray Remux [PIXELS_REMUX_HDCLUB] / 1080p)
Контейнер: AVI
Видео: 720x304 (2.37:1), 23.976 fps, XviD build 67 ~2050 kbps avg, 0.39 bit/pixel
Аудио #1: Русский: AC3, 5.1, 48 kHz, ~448 Кбит/с | Профессиональный (полное дублирование), BD EUR |
Аудио #2: Английский: AC3, 5.1, 48 kHz, ~448 Кбит/с | Оригинал |
Аудио #3: Украинский: AC3, 5.1, 48 kHz, ~448 Кбит/с | Профессиональный (полное дублирование) BD EUR | (отдельно, в составе раздачи)
Субтитры: русские (полные x2, форсированные), украинские (полные x2, форсированные), английские (полные x2, форсированные, SDH, SDH цветные)
Размер: 2235.47 Mb (1/2 DVD)
MediaInfo
Полное имя : Pikseli.2015.DUAL.BDRip.XviD.AC3.-HQCLUB.avi
Формат : AVI
Формат/Информация : Audio Video Interleave
Профиль формата : OpenDML
Размер файла : 2,18 Гбайт
Продолжительность : 1 ч. 45 м.
Общий поток : 2953 Кбит/сек
Название фильма : Пиксели / Pixels (2015) BDRip
Режиссёр : Elheym
Программа кодирования : VirtualDubMod 1.5.10.2 (build 2540/release)
Авторское право : HQCLUB
Примечание : 26.10.2015
Видео
Идентификатор : 0
Формат : MPEG-4 Visual
Профиль формата : Advanced Simple@L5
Параметр BVOP формата : 2
Параметр QPel формата : Нет
Параметр GMC формата : Без точки перехода
Параметр матрицы формата : Выборочная
Идентификатор кодека : XVID
Идентификатор кодека/Подсказка : XviD
Продолжительность : 1 ч. 45 м.
Битрейт : 2040 Кбит/сек
Ширина : 720 пикселей
Высота : 304 пикселя
Соотношение сторон : 2,35:1
Частота кадров : 23,976 кадра/сек
Цветовое пространство : YUV
Субдискретизация насыщенности : 4:2:0
Битовая глубина : 8 бит
Тип развёртки : Прогрессивная
Метод сжатия : С потерями
Бит/(Пиксели*Кадры) : 0.389
Размер потока : 1,51 Гбайт (69%)
Библиотека кодирования : XviD 67
Аудио #1
Идентификатор : 1
Формат : AC-3
Формат/Информация : Audio Coding 3
Расширение режима : CM (complete main)
Параметр Endianness формата : Big
Идентификатор кодека : 2000
Продолжительность : 1 ч. 45 м.
Вид битрейта : Постоянный
Битрейт : 448 Кбит/сек
Каналы : 6 каналов
Расположение каналов : Front: L C R, Side: L R, LFE
Частота : 48,0 КГц
Метод сжатия : С потерями
Размер потока : 339 Мбайт (15%)
Выравнивание : Разделение по промежуткам
Продолжительность промежутка : 42 мс. (1,00 видеокадр)
Время предзагрузки промежутка : 500 мс.
Аудио #2
Идентификатор : 2
Формат : AC-3
Формат/Информация : Audio Coding 3
Расширение режима : CM (complete main)
Параметр Endianness формата : Big
Идентификатор кодека : 2000
Продолжительность : 1 ч. 45 м.
Вид битрейта : Постоянный
Битрейт : 448 Кбит/сек
Каналы : 6 каналов
Расположение каналов : Front: L C R, Side: L R, LFE
Частота : 48,0 КГц
Метод сжатия : С потерями
Размер потока : 339 Мбайт (15%)
Выравнивание : Разделение по промежуткам
Продолжительность промежутка : 42 мс. (1,00 видеокадр)
Время предзагрузки промежутка : 500 мс.
Скриншоты
Скачать

Скачать торрент!

Как скачивать? · Что такое торрент? · Рейтинг и ограничения

Сайт не распространяет и не хранит электронные версии произведений, а лишь предоставляет доступ к создаваемому пользователями каталогу ссылок на торрент-файлы, которые содержат только списки хеш-сумм

[Профиль] [ЛС]
Показать сообщения:    
Ответить на тему

Текущее время: Сегодня 00:13

Часовой пояс: GMT + 4



Вы не можете начинать темы
Вы не можете отвечать на сообщения
Вы не можете редактировать свои сообщения
Вы не можете удалять свои сообщения
Вы не можете голосовать в опросах
Вы не можете прикреплять файлы к сообщениям
Вы не можете скачивать файлы