В тесноте, да не в обиде (Александр Кананович) [2015, Мелодрама, комедия, SATRip]

Ответить на тему
 
Автор Сообщение

user ®

Стаж: 7 лет 7 месяцев

Сообщений: 20008

Пост Пост: #1 от 26-Окт-2015 14:24

[Цитировать]

В тесноте, да не в обиде
Жанр: мелодрама, комедия
Год выпуска: 2015
Продолжительность: 01:45:10.000 (157750 frames)
Режиссёр: Александр Кананович
В ролях: Валерия Арланова, Руслан Чернецкий, Александр Вергун, Ангелина Савичева, Ирина Шевчук, Виктор Васильев, Геннадий Фомин, Людмила Малеева
Описание: Семья Смирновых когда-то была любящей и дружной. Муж, жена, двое детей — что еще нужно для счастья? Но постепенно все пошло наперекосяк. Жена постоянно ругается с мужем, дело доходит до развода. И они бы развелись, если бы подвернулся хоть какой-нибудь вариант с разменом жилья. Но крошечную квартирку разменять невозможно. Однажды, во время очередной перебранки, семья получает известие, что к ним едет погостить состоятельная тетушка Василиса Кузьминична (тетя Вася), которая на старости лет решила объехать всю свою родню, чтобы найти идеальную семью. Только такой семье эксцентричная тетушка готова завещать все, что у нее есть. Смирновы решают разыграть «комедию для тети» и побыть пару дней идеальной семьей. Ради наследства можно и постараться, ведь это решит их жилищные проблемы.
Качество видео: SATRip
Формат видео: AVI
Видео: 720x400 (1.80:1), 25 fps, XviD build 50 ~1799 kbps avg, 0.25 bit/pixel
Аудио: 48 kHz, AC3 Dolby Digital, 2/0 (L,R) ch, ~192 kbps

Релиз:
MI
Format : AVI
Format/Info : Audio Video Interleave
File size : 1.47 GiB
Duration : 1h 45mn
Overall bit rate : 2 002 Kbps
Writing application : VirtualDubMod 1.5.10.3 | www.virtualdub-fr.org || (build 2550/release)
Writing library : VirtualDubMod build 2550/release
Video
ID : 0
Format : MPEG-4 Visual
Format profile : Advanced Simple@L5
Format settings, BVOP : Yes
Format settings, QPel : No
Format settings, GMC : No warppoints
Format settings, Matrix : Default (H.263)
Codec ID : XVID
Codec ID/Hint : XviD
Duration : 1h 45mn
Bit rate : 1 800 Kbps
Width : 720 pixels
Height : 400 pixels
Display aspect ratio : 16:9
Frame rate : 25.000 fps
Resolution : 8 bits
Colorimetry : 4:2:0
Scan type : Progressive
Bits/(Pixel*Frame) : 0.250
Stream size : 1.32 GiB (90%)
Writing library : XviD 1.2.1 (UTC 2008-12-04)
Audio
ID : 1
Format : AC-3
Format/Info : Audio Coding 3
Codec ID : 2000
Duration : 1h 45mn
Bit rate mode : Constant
Bit rate : 192 Kbps
Channel(s) : 2 channels
Channel positions : L R
Sampling rate : 48.0 KHz
Stream size : 144 MiB (10%)
Alignment : Split accross interleaves
Interleave, duration : 40 ms (1.00 video frame)
Interleave, preload duration : 500 ms
Скриншот c названием фильма Скриншоты
Скачать

Скачать торрент!

Как скачивать? · Что такое торрент? · Рейтинг и ограничения

Сайт не распространяет и не хранит электронные версии произведений, а лишь предоставляет доступ к создаваемому пользователями каталогу ссылок на торрент-файлы, которые содержат только списки хеш-сумм

[Профиль] [ЛС]
Показать сообщения:    
Ответить на тему

Текущее время: Сегодня 23:48

Часовой пояс: GMT + 4



Вы не можете начинать темы
Вы не можете отвечать на сообщения
Вы не можете редактировать свои сообщения
Вы не можете удалять свои сообщения
Вы не можете голосовать в опросах
Вы не можете прикреплять файлы к сообщениям
Вы не можете скачивать файлы