Загнанные лошади / Broken Horses (Видху Винод Чопра / Vidhu Vinod Chopra) [2015, США, боевик, триллер, драма, криминал, WEB-DLRip] MVO (iTunes)

Ответить на тему
 
Автор Сообщение

user ®

Стаж: 7 лет 7 месяцев

Сообщений: 20008

Пост Пост: #1 от 26-Окт-2015 11:18

[Цитировать]

Загнанные лошади / Broken Horses
Год выпуска: 2015
Страна: США
Жанр: боевик, триллер, драма, криминал, детектив
Продолжительность: 01:40:37-Перевод: Профессиональный (многоголосый закадровый)
Cубтитры: нет-Режиссер: Видху Винод Чопра / Vidhu Vinod Chopra
В ролях: Антон Ельчин, Крис Маркетт, Винсент Д’Онофрио, Мария Вальверде, Томас Джейн, Шон Патрик Флэнери, Фрэнк М. Эхерн, Сэди Александру, Scott Aschenbrenner, Чэд Грибель-Описание: Братские узы, лояльные законы и тщетное насилие на фоне войны банд на американо-мексиканской границе.
Сэмпл: http://multi-up.com/1064542
Качество видео: WEB-DLRip
Формат видео: AVI
Видео: 720x304 (2.35:1), 23.976 fps, XviD ~1681 kbps, 0.32 bit/pixel
Аудио: 48.0 KHz, AC-3, 6 channels, ~384 kbps (RUS) - iTunes Russia
MediaInfo
General
Complete name                            : E:\Загнанные лошади [WEB-DLRip, 1.46, 2015].avi
Format                                   : AVI
Format/Info                              : Audio Video Interleave
File size                                : 1.46 GiB
Duration                                 : 1h 40mn
Overall bit rate                         : 2 074 Kbps
Writing library                          : VirtualDubMod build 2550/release
Video
ID                                       : 0
Format                                   : MPEG-4 Visual
Format profile                           : Advanced Simple@L5
Format settings, BVOP                    : 2
Format settings, QPel                    : No
Format settings, GMC                     : No warppoints
Format settings, Matrix                  : Default (MPEG)
Codec ID                                 : XVID
Codec ID/Hint                            : XviD
Duration                                 : 1h 40mn
Bit rate                                 : 1 681 Kbps
Width                                    : 720 pixels
Height                                   : 304 pixels
Display aspect ratio                     : 2.35:1
Frame rate                               : 23.976 fps
Color space                              : YUV
Chroma subsampling                       : 4:2:0
Bit depth                                : 8 bits
Scan type                                : Progressive
Compression mode                         : Lossy
Bits/(Pixel*Frame)                       : 0.320
Stream size                              : 1.18 GiB (81%)
Writing library                          : XviD 1.2.1 (UTC 2008-12-04)
Audio
ID                                       : 1
Format                                   : AC-3
Format/Info                              : Audio Coding 3
Mode extension                           : CM (complete main)
Format settings, Endianness              : Big
Codec ID                                 : 2000
Duration                                 : 1h 40mn
Bit rate mode                            : Constant
Bit rate                                 : 384 Kbps
Channel(s)                               : 6 channels
Channel positions                        : Front: L C R, Side: L R, LFE
Sampling rate                            : 48.0 KHz
Compression mode                         : Lossy
Stream size                              : 276 MiB (19%)
Alignment                                : Split accross interleaves
Interleave, duration                     : 42 ms (1.00 video frame)
Interleave, preload duration             : 500 ms
Скриншот c названием фильма Скриншоты
Скачать

Скачать торрент!

Как скачивать? · Что такое торрент? · Рейтинг и ограничения

Сайт не распространяет и не хранит электронные версии произведений, а лишь предоставляет доступ к создаваемому пользователями каталогу ссылок на торрент-файлы, которые содержат только списки хеш-сумм

[Профиль] [ЛС]
Показать сообщения:    
Ответить на тему

Текущее время: Сегодня 04:50

Часовой пояс: GMT + 4



Вы не можете начинать темы
Вы не можете отвечать на сообщения
Вы не можете редактировать свои сообщения
Вы не можете удалять свои сообщения
Вы не можете голосовать в опросах
Вы не можете прикреплять файлы к сообщениям
Вы не можете скачивать файлы