Пиноккио / Pinocchio (Хэмильтон Ласки / Hamilton Luske, Бен Шарпстин / Ben Sharpsteen) [1940, полнометражный мультфильм, детский, семейный, фантастика, приключения, BDRip] DUB

Ответить на тему
 
Автор Сообщение

user ®

Стаж: 7 лет 7 месяцев

Сообщений: 20008

Пост Пост: #1 от 26-Окт-2015 05:09

[Цитировать]

Пиноккио / Pinocchio
Страна: США
Жанр: полнометражный мультфильм, детский, семейный, фантастика, приключения
Продолжительность: 01:27:44
Год выпуска: 1940
Перевод: Профессиональный (дублированный)
Субтитры: отсутствуют
Оригинальная аудиодорожка: нет
Режиссёры: Хэмильтон Ласки / Hamilton Luske, Бен Шарпстин / Ben Sharpsteen
Актёры: Мел Бланк, Дон Броди, Уолтер Кэтлетт, Мэрион Дарлингтон, Фрэнки Дэрроу, Клифф Эдвардс, Дики Джонс, Чарльз Джуделс, Джек Мерсер, Кристиан Раб, Эвелин Венейбл
Аннотация: Кукольник Джеппетто заканчивает новую марионетку и, увидев падающую звезду, загадывает желание. Он хочет, чтобы кукла по имени Пиноккио превратилась в мальчика. Волшебница-фея слышит просьбу мастера и выполняет её. Пиноккио обретает жизнь и разум, и теперь деревянный мальчик должен научиться быть достойным человеком, чтобы превратиться в ребенка из плоти и крови.

Качество: BDRip [[url=http://***/forum/viewtopic.php?t=3489363]BDRemux 1080p[/url]]
Формат: AVI
Video: 688x512 (1.34:1), 23.976 fps, XviD build 65 ~1051 kbps avg, 0.12 bit/pixel
Audio: 48 kHz, MPEG Layer 3, 2 ch, ~128.00 kbps avg
Подробные технические данные
AviInfo
File: Pinocchio_1940_BDRip_[***].aviFilesize: 746.25 Mb ( 782 497 792 bytes )Play length: 01:27:44.258 (126216 frames)Subtitles: Not PresentVideo: 688x512 (1.34:1), 23.976 fps, XviD build 65 ~1051 kbps avg, 0.12 bit/pixelAudio: 48 kHz, MPEG Layer 3, 2 ch, ~128.00 kbps avg
MediaInfo
ОбщееПолное имя : E:\Pinocchio_1940_BDRip_[***].aviФормат : AVIФормат/Информация : Audio Video InterleaveРазмер файла : 746 МбайтПродолжительность : 1 ч. 27 м.Общий поток : 1189 Кбит/секПрограмма кодирования : VirtualDubModRus 1.5.10.2 (build 2542/release)Библиотека кодирования : VirtualDubMod build 2542/release
ВидеоИдентификатор : 0Формат : MPEG-4 VisualПрофиль формата : Advanced Simple@L5Параметр BVOP формата : 1Параметр QPel формата : НетПараметр GMC формата : Без точки переходаПараметр матрицы формата : Default (MPEG)Идентификатор кодека : DX50Идентификатор кодека/Подсказка : DivX 5Продолжительность : 1 ч. 27 м.Битрейт : 1052 Кбит/секШирина : 688 пикселейВысота : 512 пикселейСоотношение сторон : 4:3Частота кадров : 23,976 кадра/секЦветовое пространство : YUVСубдискретизация насыщенности : 4:2:0Битовая глубина : 8 битТип развёртки : ПрогрессивнаяМетод сжатия : С потерямиБит/(Пиксели*Кадры) : 0.125Размер потока : 660 Мбайт (88%)Библиотека кодирования : XviD 65
АудиоИдентификатор : 1Формат : MPEG AudioВерсия формата : Version 1Профиль формата : Layer 3Режим : Joint stereoРасширение режима : MS StereoИдентификатор кодека : 55Идентификатор кодека/Подсказка : MP3Продолжительность : 1 ч. 27 м.Вид битрейта : ПостоянныйБитрейт : 128 Кбит/секКаналы : 2 каналаЧастота : 48,0 КГцМетод сжатия : С потерямиРазмер потока : 80,3 Мбайт (11%)Выравнивание : Соединение по промежуткамПродолжительность промежутка : 42 мс. (1,00 видеокадр)Время предзагрузки промежутка : 504 мс.Библиотека кодирования : LAME3.97Настройки программы : -m j -V 4 -q 2 -lowpass 17 -b 128
Скриншоты Время раздачи - по возможности.
Скачать

Скачать торрент!

Как скачивать? · Что такое торрент? · Рейтинг и ограничения

Сайт не распространяет и не хранит электронные версии произведений, а лишь предоставляет доступ к создаваемому пользователями каталогу ссылок на торрент-файлы, которые содержат только списки хеш-сумм

[Профиль] [ЛС]
Показать сообщения:    
Ответить на тему

Текущее время: Сегодня 21:56

Часовой пояс: GMT + 4



Вы не можете начинать темы
Вы не можете отвечать на сообщения
Вы не можете редактировать свои сообщения
Вы не можете удалять свои сообщения
Вы не можете голосовать в опросах
Вы не можете прикреплять файлы к сообщениям
Вы не можете скачивать файлы