Долина Папоротников: Последний Тропический Лес / FernGully: The Last Rainforest (Билл Кройер / Bill Kroyer) [1992, мультфильм, фэнтези, приключения, семейный, BDRip] MVO (Первый канал)

Ответить на тему
 
Автор Сообщение

user ®

Стаж: 13 лет

Сообщений: 15041

Пост Пост: #1 от 26-Окт-2015 02:03

[Цитировать]

Долина Папоротников: Последний Тропический Лес / FernGully: The Last Rainforest
Страна: США, Австралия
Жанр: мультфильм, фэнтези, приключения, семейный
Продолжительность: 01:15:52
Год выпуска: 1992
Перевод: Профессиональный (многоголосый закадровый) Первый канал
Русские субтитры: нет
Режиссёр: Билл Кройер / Bill Kroyer
Роли озвучивали: нет информации
Описание: Тим Карри, Саманта Мэтис, Кристиан Слэйтер, Джонатан Уорд, Робин Уильямс, Грейс Забриски, Джеффри Блейк, Роберт Пасторелли, Чич Марин, Томми Чонг
Семпл: https://yadi.sk/i/UDrPpzatjzKzg
Качество: BDRip [url=http://***/forum/viewtopic.php?t=4027876]Источник[/url]
Формат: AVI
Видео: 720x288 (2.50:1), 23.976 fps, XviD build 50 ~2045 kbps avg, 0.41 bit/pixel
Аудио: 48 kHz, AC3 Dolby Digital, 2/0 (L,R) ch, ~192.00 kbps avg
Субтитры: отсутствуют
Подробные технические данные
GeneralComplete name : C:\Users\User\Desktop\Долина папоротников.aviFormat : AVIFormat/Info : Audio Video InterleaveFile size : 1.36 GiBDuration : 1h 15mnOverall bit rate : 2 564 KbpsMovie name : FernGully: The Last Rainforest (1992)Director : Bill KroyerWriting application : VirtualDubMod 1.5.10.2 (build 2540/release)Writing library : VirtualDubMod build 2540/releaseComment : BDRip / xfiles / РГ Мультфильмы / ***
VideoID : 0Format : MPEG-4 VisualFormat profile : Advanced Simple@L5Format settings, BVOP : 2Format settings, QPel : NoFormat settings, GMC : No warppointsFormat settings, Matrix : CustomCodec ID : DX50Codec ID/Hint : DivX 5Duration : 1h 15mnBit rate : 2 363 KbpsWidth : 704 pixelsHeight : 384 pixelsDisplay aspect ratio : 1.85:1Frame rate : 23.976 fpsColor space : YUVChroma subsampling : 4:2:0Bit depth : 8 bitsScan type : ProgressiveCompression mode : LossyBits/(Pixel*Frame) : 0.365Stream size : 1.25 GiB (92%)Writing library : XviD 65
AudioID : 1Format : AC-3Format/Info : Audio Coding 3Mode extension : CM (complete main)Format settings, Endianness : BigCodec ID : 2000Duration : 1h 15mnBit rate mode : ConstantBit rate : 192 KbpsChannel(s) : 2 channelsChannel positions : Front: L RSampling rate : 48.0 KHzCompression mode : LossyStream size : 104 MiB (7%)Alignment : Split accross interleavesInterleave, duration : 42 ms (1.00 video frame)Interleave, preload duratio : 500 ms
Скриншоты
Скачать

Скачать торрент! Долина Папоротников: Последний Тропический Лес / FernGully: The Last Rainforest (Билл Кройер / Bill Kroyer) [1992, мультфильм, фэнтези, приключения, семейный, BDRip] MVO (Первый канал)

Как скачивать? · Что такое торрент? · Рейтинг и ограничения

Сайт не распространяет и не хранит электронные версии произведений, а лишь предоставляет доступ к создаваемому пользователями каталогу ссылок на торрент-файлы, которые содержат только списки хеш-сумм

[Профиль] [ЛС]
Показать сообщения:    
Ответить на тему

Текущее время: Сегодня 23:30

Часовой пояс: GMT + 4



Вы не можете начинать темы
Вы не можете отвечать на сообщения
Вы не можете редактировать свои сообщения
Вы не можете удалять свои сообщения
Вы не можете голосовать в опросах
Вы не можете прикреплять файлы к сообщениям
Вы не можете скачивать файлы