Ты веришь? / Do You Believe? (Джон Ганн / Jon Gunn) [2015, США, драма, HDRip] MVO

Ответить на тему
 
Автор Сообщение

user ®

Стаж: 7 лет 7 месяцев

Сообщений: 20008

Пост Пост: #1 от 25-Окт-2015 19:51

[Цитировать]

Ты веришь? / Do You Believe?
Страна: США
Жанр: драма
Год выпуска: 2015
Продолжительность: 01:57:32-Перевод: Любительский (многоголосый закадровый) Team J Studio
Cубтитры: нет
Режиссер: Джон Ганн / Jon Gunn-В ролях: Ди Эн Эй, Шон Эстин, Брайан Босворт, Валери Домингез, Делрой Линдо, Андреа Логан Уайт, Ли Мэйджорс, Лайам Мэтьюз, Тед МакГинли, Трэйси Мельхиор...
Описание: Будучи потрясен силой веры уличного проповедника, католический пастор вспоминает, что истинная вера требует действия, и отправляется в путешествие, которое затронет каждого, кого он встретит на своем пути.-Сэмпл: http://sendfile.su/1167891
Качество видео: HDRip
Формат видео: AVI
Видео: 640x352 (1.82:1), 23.976 fps, XviD build 50 ~660 kbps avg, 0.12 bit/pixel
Аудио: 48 kHz, AC3 Dolby Digital, 2/0 (L,R) ch, ~192 kbps


MediaInfo
Формат : AVI
Формат/Информация : Audio Video Interleave
Размер файла : 725 Мбайт
Продолжительность : 1 ч. 57 м.
Общий поток : 862 Кбит/сек
Программа кодирования : VirtualDubMod 1.5.10.2 (build 2540/release)
Библиотека кодирования : VirtualDubMod build 2540/release
Видео
Идентификатор : 0
Формат : MPEG-4 Visual
Профиль формата : Advanced Simple@L5
Параметр BVOP формата : 1
Параметр QPel формата : Нет
Параметр GMC формата : Без точки перехода
Параметр матрицы формата : Default (MPEG)
Идентификатор кодека : XVID
Идентификатор кодека/Подсказка : XviD
Продолжительность : 1 ч. 57 м.
Битрейт : 661 Кбит/сек
Ширина : 640 пикселей
Высота : 352 пикселя
Соотношение сторон : 16:9
Частота кадров : 23,976 кадра/сек
Цветовое пространство : YUV
Субдискретизация насыщенности : 4:2:0
Битовая глубина : 8 бит
Тип развёртки : Прогрессивная
Метод сжатия : С потерями
Бит/(Пиксели*Кадры) : 0.122
Размер потока : 555 Мбайт (77%)
Библиотека кодирования : XviD 1.2.1 (UTC 2008-12-04)
Аудио
Идентификатор : 1
Формат : AC-3
Формат/Информация : Audio Coding 3
Расширение режима : CM (complete main)
Параметр Endianness формата : Big
Идентификатор кодека : 2000
Продолжительность : 1 ч. 57 м.
Вид битрейта : Постоянный
Битрейт : 192 Кбит/сек
Каналы : 2 канала
Расположение каналов : Front: L R
Частота : 48,0 КГц
Метод сжатия : С потерями
Размер потока : 161 Мбайт (22%)
Выравнивание : Разделение по промежуткам
Продолжительность промежутка : 42 мс. (1,00 видеокадр)
Время предзагрузки промежутка : 500 мс.
Скриншот c названием фильма Скриншоты
Скачать

Скачать торрент!

Как скачивать? · Что такое торрент? · Рейтинг и ограничения

Сайт не распространяет и не хранит электронные версии произведений, а лишь предоставляет доступ к создаваемому пользователями каталогу ссылок на торрент-файлы, которые содержат только списки хеш-сумм

[Профиль] [ЛС]
Показать сообщения:    
Ответить на тему

Текущее время: Сегодня 12:55

Часовой пояс: GMT + 4



Вы не можете начинать темы
Вы не можете отвечать на сообщения
Вы не можете редактировать свои сообщения
Вы не можете удалять свои сообщения
Вы не можете голосовать в опросах
Вы не можете прикреплять файлы к сообщениям
Вы не можете скачивать файлы