Охота на монстра / Monster Hunt (Раман Хюи / Raman Hui) [2015, Китай, Гонконг, Фэнтези, боевик, комедия, DVDRip] DVO

Ответить на тему
 
Автор Сообщение

user ®

Стаж: 13 лет

Сообщений: 15071

Пост Пост: #1 от 25-Окт-2015 16:45

[Цитировать]

Охота на монстра / Monster Hunt
Страна: Китай, Гонконг
Жанр: Фэнтези, боевик, комедия
Год выпуска: 2015
Продолжительность: 01:51:17
Перевод: Любительский (двухголосый закадровый)
Cубтитры: китайские, английские (неотключаемые)
Режиссер: Раман Хюи / Raman Hui
В ролях: Тан Вэй, Сюэ Бай, Эрик Цан, Цзин Божань, У Цзян, Яо Чэнь, Уоллес Чунг, Го Сяодун, Сандра Нг, Ни Янь
Описание: Когда-то давно люди и монстры мирно сосуществовали в одном мире. Но из-за жадности одних, другие были практически полностью истреблены и навеки изгнаны из прекрасного солнечного мира. И вот спустя несколько тысячелетий людская жадность вновь привела к Великой войне.
Однажды обычный парень Тхен Инь был очарован прекрасным монстром. После чего он неожиданно для себя понял, что забеременел! И родился у него и у его новоиспечённой «жены» малыш — будущий король монстров. Назвали его ХуБа. Теперь странноватой парочке придётся защитить свою кровиночку от злых демонов и не менее злых людей. Ведь жестокий и алчный Лорд Гэ решил покорить короля демонов, чтобы обрести безмерную силу. Ради спасения малыша вся семья отправляется в долгое путешествие в поисках места, где они смогут быть счастливы…
Сэмпл: http://multi-up.com/1072503
Качество видео: DVDRip
Формат видео: AVI
Видео: Xvid 720x304 25fps 1664kbps
Аудио: Dolby AC3 48000Hz stereo 192kbps
Формат субтитров: hardsub (неотключаемые)
MediaInfo
General
Complete name : C:\Monster Hunt_2015_DVDRip.avi
Format : AVI
Format/Info : Audio Video Interleave
Format profile : OpenDML
File size : 1.45 GiB
Duration : 1h 51mn
Overall bit rate : 1 868 Kbps
Writing application : XviD4PSP 6.0 / 54.29.105
Video
ID : 0
Format : xvid
Codec ID : xvid
Duration : 1h 51mn
Bit rate : 1 664 Kbps
Width : 720 pixels
Height : 304 pixels
Display aspect ratio : 2.40:1
Frame rate : 25.000 fps
Bits/(Pixel*Frame) : 0.304
Stream size : 1.29 GiB (89%)
Audio
ID : 1
Format : AC-3
Format/Info : Audio Coding 3
Mode extension : CM (complete main)
Codec ID : 2000
Duration : 1h 51mn
Bit rate mode : Constant
Bit rate : 192 Kbps
Channel(s) : 2 channels
Channel positions : Front: L R
Sampling rate : 48.0 KHz
Bit depth : 16 bits
Compression mode : Lossy
Stream size : 153 MiB (10%)
Alignment : Aligned on interleaves
Interleave, duration : 32 ms (0.80 video frame)
Скриншот c названием фильма Скриншоты Релиз
Любительский (двухголосый закадровый) Макс Коллапс и Елена Егорова (Перевод: Екатерина Белоусова)
Скачать

Скачать торрент! Охота на монстра / Monster Hunt (Раман Хюи / Raman Hui) [2015, Китай, Гонконг, Фэнтези, боевик, комедия, DVDRip] DVO

Как скачивать? · Что такое торрент? · Рейтинг и ограничения

Сайт не распространяет и не хранит электронные версии произведений, а лишь предоставляет доступ к создаваемому пользователями каталогу ссылок на торрент-файлы, которые содержат только списки хеш-сумм

[Профиль] [ЛС]
Показать сообщения:    
Ответить на тему

Текущее время: Сегодня 20:38

Часовой пояс: GMT + 4



Вы не можете начинать темы
Вы не можете отвечать на сообщения
Вы не можете редактировать свои сообщения
Вы не можете удалять свои сообщения
Вы не можете голосовать в опросах
Вы не можете прикреплять файлы к сообщениям
Вы не можете скачивать файлы