Всё и сразу (Роман Каримов) [2014, Россия, комедия, криминал, WEB-DLRip]

Ответить на тему
 
Автор Сообщение

user ®

Стаж: 7 лет 7 месяцев

Сообщений: 20008

Пост Пост: #1 от 24-Окт-2015 18:06

[Цитировать]

Всё и сразу
Страна: Россия
Жанр: комедия, криминал
Год выпуска: 2014
Продолжительность: 01:34:53-Режиссер: Роман Каримов-В ролях: Никита Ост, Антон Шурцов, Александр Паль, Юлия Хлынина, Артем Костюнёв, Андрей Муравьёв, Александр Шаляпин, Андрей Галактионов, Игорь Тарасевич, Ольга Возовая-Описание: Тима и Дэн — друзья-неудачники из провинциального городка. Учеба позади, работать не тянет, девушек нет. На пути к мечте (выбиться в люди) и в надежде получить всё и сразу (без особого напряга) парни берутся выполнить задание местного бандюка и отправляются на дело, прихватив с собой автослесаря Жору, такого же полного лузера.-Раздача от группы: -Качество видео: WEB-DLRip
Формат видео: AVI
Видео: 624x352 (1.77:1), 24 fps, XviD build 73 ~960 kbps avg, 0.18 bit/pixel
Аудио: 48 kHz, MPEG Layer 3, 2 ch, ~128.00 kbps avg-Сэмпл: http://sendfile.su/1167582-MediaInfo
Format                                   : AVI
Format/Info                              : Audio Video Interleave
File size                                : 745 MiB
Duration                                 : 1h 34mn
Overall bit rate                         : 1 098 Kbps
Writing application                      : VirtualDubMod 1.5.10.3 | www.virtualdub-fr.org || (build 2550/release)
Writing library                          : VirtualDubMod build 2550/release
Video
ID                                       : 0
Format                                   : MPEG-4 Visual
Format profile                           : Advanced Simple@L5
Format settings, BVOP                    : 1
Format settings, QPel                    : No
Format settings, GMC                     : No warppoints
Format settings, Matrix                  : Custom
Codec ID                                 : XVID
Codec ID/Hint                            : XviD
Duration                                 : 1h 34mn
Bit rate                                 : 961 Kbps
Width                                    : 624 pixels
Height                                   : 352 pixels
Display aspect ratio                     : 16:9
Frame rate                               : 24.000 fps
Color space                              : YUV
Chroma subsampling                       : 4:2:0
Bit depth                                : 8 bits
Scan type                                : Progressive
Compression mode                         : Lossy
Bits/(Pixel*Frame)                       : 0.182
Stream size                              : 652 MiB (87%)
Writing library                          : XviD 73
Audio
ID                                       : 1
Format                                   : MPEG Audio
Format version                           : Version 1
Format profile                           : Layer 3
Codec ID                                 : 55
Codec ID/Hint                            : MP3
Duration                                 : 1h 34mn
Bit rate mode                            : Constant
Bit rate                                 : 128 Kbps
Channel(s)                               : 2 channels
Sampling rate                            : 48.0 KHz
Compression mode                         : Lossy
Stream size                              : 86.9 MiB (12%)
Alignment                                : Aligned on interleaves
Interleave, duration                     : 42 ms (1.00 video frame)
Interleave, preload duration             : 504 ms
Writing library                          : LAME3.99r
Encoding settings                        : -m s -V 4 -q 2 -lowpass 17 -b 128
Скриншоты
Скачать

Скачать торрент!

Как скачивать? · Что такое торрент? · Рейтинг и ограничения

Сайт не распространяет и не хранит электронные версии произведений, а лишь предоставляет доступ к создаваемому пользователями каталогу ссылок на торрент-файлы, которые содержат только списки хеш-сумм

[Профиль] [ЛС]
Показать сообщения:    
Ответить на тему

Текущее время: Сегодня 15:38

Часовой пояс: GMT + 4



Вы не можете начинать темы
Вы не можете отвечать на сообщения
Вы не можете редактировать свои сообщения
Вы не можете удалять свои сообщения
Вы не можете голосовать в опросах
Вы не можете прикреплять файлы к сообщениям
Вы не можете скачивать файлы