Хитмэн: Агент 47 / Hitman: Agent 47 (Александр Бах / Aleksander Bach) [2015 г., США, Германия, Индонезия, Боевик, фантастика, триллер, HDTVRip] Dub (CAMRip)

Ответить на тему
 
Автор Сообщение

user ®

Стаж: 7 лет 7 месяцев

Сообщений: 20008

Пост Пост: #1 от 24-Окт-2015 18:06

[Цитировать]

Хитмэн: Агент 47 / Hitman: Agent 47
Выпущено: США, Германия, Индонезия / Twentieth Century Fox Film Corporation, TSG Entertainment, Fox International Productions
Жанр: боевик, фантастика, триллер
Год выхода: 2015
Продолжительность: 01:36:12-Озвучивание: Профессиональный (дублированный) [звук с CAMRip]
Субтитры: нет-Режиссер: Александр Бах / Aleksander Bach
В ролях: Руперт Френд, Ханна Уэр, Закари Куинто, Анджела Бейби, Томас Кречман, Дэн Баккедаль, Шарлин Бек, Михаэль Борнхюттер, Мелисса Бротон, Нильс Брункхорст, Михаэлла Каспар, Элвин Чан, Майкл Коркоран, Мануэль Депта, Эндрю Ди Бартоломео, Георг Эбиналь, Йорг Эллмер, Вайе Леон Го, Маттиас Гюнтер, Джесси Хергт, Киаран Хайндс, Джерри Хоффманн, Флориан Хотц-О фильме: История об элитном убийце, созданном при помощи генной инженерии, который объединяется с женщиной, чтобы помочь ей найти отца и раскрыть тайну своего происхождения.- С.э.м.п.л-Качество: HDTVRip [Рип с HDTV 1080p]
Формат: AVI (XviD)
Видео: 720x400 (1.80:1), 29.970 fps, XviD MPEG-4 ~1898 kbps avg, 0.22 bit/pixel
Аудио1: 48 kHz, AC3 Dolby Digital, 2/0 (L,R) ch, ~192 kbps-

MI
General
Complete name                            : Hitman.Agent.47.2015.Dt.HDTVRip.1400Mb.[mgt].avi
Format                                   : AVI
Format/Info                              : Audio Video Interleave
File size                                : 1.41 GiB
Duration                                 : 1h 36mn
Overall bit rate                         : 2 102 Kbps
Writing application                      : VirtualDubMod 1.5.10.2 (build 2540/release)
Writing library                          : VirtualDubMod build 2540/release
Video
ID                                       : 0
Format                                   : MPEG-4 Visual
Format profile                           : Advanced Simple@L5
Format settings, BVOP                    : 2
Format settings, QPel                    : No
Format settings, GMC                     : No warppoints
Format settings, Matrix                  : Default (H.263)
Muxing mode                              : Packed bitstream
Codec ID                                 : XVID
Codec ID/Hint                            : XviD
Duration                                 : 1h 36mn
Bit rate                                 : 1 899 Kbps
Width                                    : 720 pixels
Height                                   : 400 pixels
Display aspect ratio                     : 16:9
Frame rate                               : 29.970 fps
Color space                              : YUV
Chroma subsampling                       : 4:2:0
Bit depth                                : 8 bits
Scan type                                : Progressive
Compression mode                         : Lossy
Bits/(Pixel*Frame)                       : 0.220
Stream size                              : 1.28 GiB (90%)
Writing library                          : XviD 66
Audio
ID                                       : 1
Format                                   : AC-3
Format/Info                              : Audio Coding 3
Mode extension                           : CM (complete main)
Format settings, Endianness              : Big
Codec ID                                 : 2000
Duration                                 : 1h 36mn
Bit rate mode                            : Constant
Bit rate                                 : 192 Kbps
Channel count                            : 2 channels
Channel positions                        : Front: L R
Sampling rate                            : 48.0 KHz
Bit depth                                : 16 bits
Compression mode                         : Lossy
Stream size                              : 132 MiB (9%)
Alignment                                : Split accross interleaves
Interleave, duration                     : 33 ms (1.00 video frame)
Interleave, preload duration             : 500 ms
Скриншоты
Скачать

Скачать торрент!

Как скачивать? · Что такое торрент? · Рейтинг и ограничения

Сайт не распространяет и не хранит электронные версии произведений, а лишь предоставляет доступ к создаваемому пользователями каталогу ссылок на торрент-файлы, которые содержат только списки хеш-сумм

[Профиль] [ЛС]
Показать сообщения:    
Ответить на тему

Текущее время: Сегодня 16:11

Часовой пояс: GMT + 4



Вы не можете начинать темы
Вы не можете отвечать на сообщения
Вы не можете редактировать свои сообщения
Вы не можете удалять свои сообщения
Вы не можете голосовать в опросах
Вы не можете прикреплять файлы к сообщениям
Вы не можете скачивать файлы