Терминатор: Генезис / Terminator Genisys (Алан Тейлор / Alan Taylor) [2015, США, фантастика, боевик, триллер, BDRip] Dub (Rus, Ukr) + Original Eng + Sub (Rus, Eng)

Ответить на тему
 
Автор Сообщение

user ®

Стаж: 7 лет 7 месяцев

Сообщений: 20008

Пост Пост: #1 от 24-Окт-2015 18:06

[Цитировать]

Терминатор: Генезис / Terminator Genisys
Страна: США
Жанр: фантастика, боевик, триллер
Год выпуска: 2015
Продолжительность: 02:05:42
Перевод: Профессиональный (дублированный) BD CEE лицензия
Перевод 2: Профессиональный (дублированный) украинский отдельно
Cубтитры: русские (полные, форсированные), английские (полные, SDH)
Оригинальная аудиодорожка: английский отдельно
Режиссер: Алан Тейлор / Alan Taylor
В ролях: Арнольд Шварценеггер, Джейсон Кларк, Эмилия Кларк, Джай Кортни, Дж.К. Симмонс, Дайо Окенийи, Мэтт Смит, Кортни Б. Вэнс, Ли Бён Хон, Майкл Глэдис
Описание: Когда Джон Коннор, лидер сопротивления, посылает сержанта Кайла Риза назад в 1984 год, чтобы защитить Сару Коннор и спасти будущее, неожиданный поворот событий создает разлом во времени. Сержант Риз оказывается в новой, незнакомой версии прошлого, где он встречает неожиданных союзников, в том числе Терминатора, новых опасных врагов, и новую миссию: изменить будущее…
Релиз:
Автор: sociolog_melvas
Сэмпл: http://multi-up.com/1072580
Качество видео: BDRip (источник: HDClub / Blu-ray / 1080p)
Формат видео: AVI
Видео: 720x304 (2.37:1), 23,976 fps, XviD build 65 ~2031 kbps avg, 0.39 bit/pixel
Аудио: 48 kHz, AC3 Dolby Digital, 3/2 (L,C,R,l,r) + LFE ch, ~448 kbps avg (DUB.CEE)
Аудио 2: 48 kHz, AC3 Dolby Digital, 2/0 (L,R), ~192 kbps avg (DUB.UKR) отдельно
Аудио 3: 48 kHz, AC3 Dolby Digital, 3/2 (L,C,R,l,r) + LFE ch, ~448 kbps avg (ENG) отдельно
Формат субтитров: softsub (SRT)
MediaInfo
Format : AVI
Format/Info : Audio Video Interleave
Format profile : OpenDML
File size : 2.18 GiB
Duration : 2h 5mn
Overall bit rate : 2 486 Kbps
Writing application : VirtualDubMod 1.5.10.2 (build 2540/release)
Video
ID : 0
Format : MPEG-4 Visual
Format profile : AdvancedSimple@L5
Format settings, BVOP : Yes
Format settings, QPel : No
Format settings, GMC : No warppoints
Format settings, Matrix : Custom
Codec ID : XVID
Codec ID/Hint : XviD
Duration : 2h 5mn
Bit rate : 2 026 Kbps
Width : 720 pixels
Height : 304 pixels
Display aspect ratio : 2.35:1
Frame rate : 23.976 fps
Resolution : 24 bits
Colorimetry : 4:2:0
Scan type : Progressive
Bits/(Pixel*Frame) : 0.386
Stream size : 1.78 GiB (81%)
Writing library : XviD 65
Audio
ID : 1
Format : AC-3
Format/Info : Audio Coding 3
Codec ID : 2000
Duration : 2h 5mn
Bit rate mode : Constant
Bit rate : 448 Kbps
Channel(s) : 6 channels
Channel positions : Front: L C R, Surround: L R, LFE
Sampling rate : 48.0 KHz
Stream size : 403 MiB (18%)
Alignment : Split accross interleaves
Interleave, duration : 42 ms (1.00 video frame)
Interleave, preload duration : 500 ms
Скриншот c названием фильма Скриншоты Сравнения
Вот с этим [url=http://***/forum/viewtopic.php?t=5097825]http://***/forum/viewtopic.php?t=5097825[/url] здесь http://screenshotcomparison.com/comparison/148086/picture:0
+ 448 kbps, украинская и родная дорожка и полный пак субтитров
А вот с этим [url=http://***/forum/viewtopic.php?t=5097683]http://***/forum/viewtopic.php?t=5097683[/url] здесь http://screenshotcomparison.com/comparison/148090/picture:1
+ 448 kbps, украинская и родная дорожка и полный пак субтитров
Скачать

Скачать торрент!

Как скачивать? · Что такое торрент? · Рейтинг и ограничения

Сайт не распространяет и не хранит электронные версии произведений, а лишь предоставляет доступ к создаваемому пользователями каталогу ссылок на торрент-файлы, которые содержат только списки хеш-сумм

[Профиль] [ЛС]
Показать сообщения:    
Ответить на тему

Текущее время: Сегодня 08:56

Часовой пояс: GMT + 4



Вы не можете начинать темы
Вы не можете отвечать на сообщения
Вы не можете редактировать свои сообщения
Вы не можете удалять свои сообщения
Вы не можете голосовать в опросах
Вы не можете прикреплять файлы к сообщениям
Вы не можете скачивать файлы