Ускорение / Momentum (Стивен С. Кампанелли / Stephen S. Campanelli) [2015, ЮАР, США, боевик, триллер, WEB-DLRip] Dub

Ответить на тему
 
Автор Сообщение

user ®

Стаж: 7 лет 7 месяцев

Сообщений: 20008

Пост Пост: #1 от 23-Окт-2015 23:27

[Цитировать]

Ускорение / Momentum
Страна: ЮАР, США
Жанр: боевик, триллер
Год выпуска: 2015
Продолжительность: 01:35:56
Перевод: Профессиональный (дублированный)
Cубтитры: oтсутствуют
Оригинальная аудиодорожка: нет
Режиссер: Стивен С. Кампанелли / Stephen S. Campanelli
Актёры: Ольга Куриленко, Джеймс Пьюрфой, Морган Фриман, Дженна Сарас, Карл Танинг, Ева-Мария Фредрик, Ли-Энн Саммерс, Брендан Мюррэй и др.
Аннотация: Алекс, опытная воровка, красивая, сильная и безжалостная роковая женщина, соглашается совершить своё последнее ограбление... Однако, фортуна от неё отвернулась, нынче ей угрожает опасность. И неудачный скачёк за брюликами, не единственная возникшая трудность... Она внатуре перешла дорогу секретному международному синдикату, который ищет чё-то более кондовое, чем обычные фуфельные бриллианты... Теперя для Алекс внатуре единственный способ спасти свою дешёвую воровскую жопу – бежать, и не просто, а с закрытыми глазами, как можно дальше, и как можно быстрее...

Качество видео: WEB-DLRip
Формат видео: AVI
Video: 656x272 (2.41:1), 23.976 fps, XviD build 73 ~949 kbps avg, 0.22 bit/pixel
Audio: 48 kHz, MPEG Layer 3, 2 ch, ~128.00 kbps avg
MediaInfo
ОбщееПолное имя : P:\Momentum_2015_WEB-DLRip_[***].aviФормат : AVIФормат/Информация : Audio Video InterleaveРазмер файла : 746 МбайтПродолжительность : 1 ч. 35 м.Общий поток : 1087 Кбит/секНазвание фильма : Ускорение / Momentum (2015) WEB-DLRipПрограмма кодирования : VirtualDubMod 1.5.10.3 | www.virtualdub-fr.org || (build 2550/release)Библиотека кодирования : VirtualDubMod build 2550/releaseПравообладатель : rip by ivandubskoj
ВидеоИдентификатор : 0Формат : MPEG-4 VisualПрофиль формата : Advanced Simple@L5Параметр BVOP формата : 2Параметр QPel формата : НетПараметр GMC формата : Без точки переходаПараметр матрицы формата : ВыборочнаяИдентификатор кодека : XVIDИдентификатор кодека/Подсказка : XviDПродолжительность : 1 ч. 35 м.Битрейт : 950 Кбит/секШирина : 656 пикселейВысота : 272 пикселяСоотношение сторон : 2,40:1Частота кадров : 23,976 кадра/секЦветовое пространство : YUVСубдискретизация насыщенности : 4:2:0Битовая глубина : 8 битТип развёртки : ПрогрессивнаяМетод сжатия : С потерямиБит/(Пиксели*Кадры) : 0.222Размер потока : 652 Мбайт (87%)Библиотека кодирования : XviD 73
АудиоИдентификатор : 1Формат : MPEG AudioВерсия формата : Version 1Профиль формата : Layer 3Идентификатор кодека : 55Идентификатор кодека/Подсказка : MP3Продолжительность : 1 ч. 35 м.Вид битрейта : ПостоянныйБитрейт : 128 Кбит/секКаналы : 2 каналаЧастота : 48,0 КГцМетод сжатия : С потерямиРазмер потока : 87,8 Мбайт (12%)Выравнивание : Соединение по промежуткамПродолжительность промежутка : 42 мс. (1,00 видеокадр)Время предзагрузки промежутка : 504 мс.Заголовок : Russian, DUB [CineLab SoundMix]Библиотека кодирования : LAME3.99rНастройки программы : -m s -V 4 -q 0 -lowpass 17 -b 128
Скриншот c названием фильма Скриншоты Время раздачи - по возможности.
Скачать

Скачать торрент!

Как скачивать? · Что такое торрент? · Рейтинг и ограничения

Сайт не распространяет и не хранит электронные версии произведений, а лишь предоставляет доступ к создаваемому пользователями каталогу ссылок на торрент-файлы, которые содержат только списки хеш-сумм

[Профиль] [ЛС]

zh_box

Стаж: 2 года 7 месяцев

Сообщений: 2

Пост Пост: #2 от 01-Ноя-2015 16:20 (спустя 8 дней)

[Цитировать]

дерьмовой аннотацией всё настроение сломал урод
[Профиль] [ЛС]
Показать сообщения:    
Ответить на тему

Текущее время: Сегодня 20:19

Часовой пояс: GMT + 4



Вы не можете начинать темы
Вы не можете отвечать на сообщения
Вы не можете редактировать свои сообщения
Вы не можете удалять свои сообщения
Вы не можете голосовать в опросах
Вы не можете прикреплять файлы к сообщениям
Вы не можете скачивать файлы