Супер Майк XXL / Magic Mike XXL (Грегори Джейкобс / Gregory Jacobs) [2015, США, комедия, музыка, драма, WEB-DLRip] Dub (iTunes)

Ответить на тему
 
Автор Сообщение

user ®

Стаж: 7 лет 7 месяцев

Сообщений: 20008

Пост Пост: #1 от 23-Окт-2015 23:27

[Цитировать]

Супер Майк XXL / Magic Mike XXL
Страна: США
Жанр: комедия, музыка, драма
Год выпуска: 2015
Продолжительность: 01:55:12
Перевод: Профессиональный (дублированный) iTunes
Cубтитры: нет
Оригинальная аудиодорожка: нет-Режиссер: Грегори Джейкобс / Gregory Jacobs-В ролях: Ченнинг Татум, Джо Манганьелло, Мэтт Бомер, Хуан Пьедраита, Шэрон Блэквуд, Элисон Фолк, Джош Диого, Кевин Нэш, Габриэль Иглесиас, Адам Родригес-Описание: Прошло три года после того, как Майк на пике своей популярности закончил карьеру стриптизера, а клуб «Короли Тампы» уже почти готов признать свое поражение. Но проделать это в своем стиле: готовясь «зажечь» Мёртл-Бич, они снова разделят сцену с легендарным Супер Майком. Дорога на последнее шоу проходит через Джеконсвилл и Саванну, где Майк и парни повстречают старых знакомых и заведут новых, а также выучат пару неизбитых движений, тряхнув при этом стариной.-Сэмпл: http://sendfile.su/1167354-Качество видео: WEB-DLRip
Формат видео: AVI
Видео: 720x304 (2.37:1), 23.976 fps, XviD build 73 ~1597 kbps avg, 0.30 bit/pixel
Аудио: 48 kHz, AC3 Dolby Digital, 2/0 (L,R) ch, ~192.00 kbps avg-MediaInfo
Format                                   : AVI
Format/Info                              : Audio Video Interleave
File size                                : 1.45 GiB
Duration                                 : 1h 55mn
Overall bit rate                         : 1 798 Kbps
Writing application                      : VirtualDubMod 1.5.10.3 | www.virtualdub-fr.org || (build 2550/release)
Writing library                          : VirtualDubMod build 2550/release
Video
ID                                       : 0
Format                                   : MPEG-4 Visual
Format profile                           : Advanced Simple@L5
Format settings, BVOP                    : 1
Format settings, QPel                    : No
Format settings, GMC                     : No warppoints
Format settings, Matrix                  : Custom
Codec ID                                 : XVID
Codec ID/Hint                            : XviD
Duration                                 : 1h 55mn
Bit rate                                 : 1 405 Kbps
Width                                    : 720 pixels
Height                                   : 304 pixels
Display aspect ratio                     : 2.35:1
Frame rate                               : 23.976 fps
Color space                              : YUV
Chroma subsampling                       : 4:2:0
Bit depth                                : 8 bits
Scan type                                : Progressive
Compression mode                         : Lossy
Bits/(Pixel*Frame)                       : 0.268
Stream size                              : 1.13 GiB (78%)
Writing library                          : XviD 73
Audio
ID                                       : 1
Format                                   : AC-3
Format/Info                              : Audio Coding 3
Mode extension                           : CM (complete main)
Codec ID                                 : 2000
Duration                                 : 1h 55mn
Bit rate mode                            : Constant
Bit rate                                 : 384 Kbps
Channel(s)                               : 6 channels
Channel positions                        : Front: L C R, Side: L R, LFE
Sampling rate                            : 48.0 KHz
Bit depth                                : 16 bits
Compression mode                         : Lossy
Stream size                              : 317 MiB (21%)
Alignment                                : Split accross interleaves
Interleave, duration                     : 42 ms (1.00 video frame)
Interleave, preload duration             : 500 ms
Скриншоты
Скачать

Скачать торрент!

Как скачивать? · Что такое торрент? · Рейтинг и ограничения

Сайт не распространяет и не хранит электронные версии произведений, а лишь предоставляет доступ к создаваемому пользователями каталогу ссылок на торрент-файлы, которые содержат только списки хеш-сумм

[Профиль] [ЛС]
Показать сообщения:    
Ответить на тему

Текущее время: Сегодня 20:30

Часовой пояс: GMT + 4



Вы не можете начинать темы
Вы не можете отвечать на сообщения
Вы не можете редактировать свои сообщения
Вы не можете удалять свои сообщения
Вы не можете голосовать в опросах
Вы не можете прикреплять файлы к сообщениям
Вы не можете скачивать файлы