Жирафа / Zarafa (Реми Безансон / Rémi Bezançon, Жан-Кристоф Ли / Jean-Christophe Lie) [2012, мультфильм, семейный, HDRip] Dub + Original Fre

Ответить на тему
 
Автор Сообщение

user ®

Стаж: 13 лет

Сообщений: 15041

Пост Пост: #1 от 23-Окт-2015 17:15

[Цитировать]

Жирафа / Zarafa«Настоящий верный друг»- Год выпуска: 2012
Страна: Франция, Бельгия
Жанр: мультфильм, семейный
Продолжительность: 01:18:32
Перевод: Профессиональный (дублированный) Студия "Пифагор"
Русские субтитры: нет-Возраст: 0+- -Режиссер: Реми Безансон / Rémi Bezançon, Жан-Кристоф Ли / Jean-Christophe Lie
Роли озвучивали: Макс Ренаудин, Симон Абкарян, Франсуа-Ксавье Демезон, Вернон Добчефф, Роже Дюма, Ронит Элькабец, Мохамед Феллаг, Дебора Франсуа, Тьерри Фремон, Филипп Морье-Жену и др.
Описание: Перед вами две судьбы и две отдельных истории которые в конечном итоге пересеклись. Первая история мальчика сироты Маки, который убегает от работорговцев и встречает Зарафу. Вторая Зарафа, настоящая жирафа которая должна проследовать в сам Париж, в качестве подарка Французскому королю Карлу (десятому). Данный мультфильм, это короткая но правдивая история дружбы человека и животного.-Сэмпл-Качество: HDRip
Формат видео: AVI
Видео: 720x304 (2,35:1), 24 fps, XviD, 2041 kbps, 0.388 bit/pixel
Аудио 1: AC-3, 224 kb/s, 2 ch, 48 kHz, Rus
Аудио 2: AC-3, 224 kb/s, 2 ch, 48 kHz, Fre
Субтитры: Отсутствуют-Подробные технические данные
ОбщееФормат : AVIФормат/Информация : Audio Video InterleaveРазмер файла : 1,37 ГбайтПродолжительность : 1 ч. 18 м.Общий поток : 2503 Кбит/сек
ВидеоИдентификатор : 0Формат : MPEG-4 VisualПрофиль формата : Advanced Simple@L5Параметр BVOP формата : 1Параметр QPel формата : НетПараметр GMC формата : Без точки переходаПараметр матрицы формата : Default (H.263)Идентификатор кодека : XVIDИдентификатор кодека/Подсказка : XviDПродолжительность : 1 ч. 18 м.Битрейт : 2041 Кбит/секШирина : 720 пикселейВысота : 304 пикселяСоотношение сторон : 2,35:1Частота кадров : 24,000 кадра/секЦветовое пространство : YUVСубдискретизация насыщенности : 4:2:0Битовая глубина : 8 битТип развёртки : ПрогрессивнаяМетод сжатия : С потерямиБит/(Пиксели*Кадры) : 0.388Размер потока : 1,12 Гбайт (82%)Библиотека кодирования : XviD 64
Аудио #1Идентификатор : 1Формат : AC-3Формат/Информация : Audio Coding 3Расширение режима : CM (complete main)Параметр Endianness формата : BigИдентификатор кодека : 2000Продолжительность : 1 ч. 18 м.Вид битрейта : ПостоянныйБитрейт : 224 Кбит/секКаналы : 2 каналаРасположение каналов : Front: L RЧастота : 48,0 КГцМетод сжатия : С потерямиРазмер потока : 126 Мбайт (9%)Выравнивание : Разделение по промежуткамПродолжительность промежутка : 42 мс. (1,00 видеокадр)Время предзагрузки промежутка : 500 мс.
Аудио #2Идентификатор : 2Формат : AC-3Формат/Информация : Audio Coding 3Расширение режима : CM (complete main)Параметр Endianness формата : BigИдентификатор кодека : 2000Продолжительность : 1 ч. 18 м.Вид битрейта : ПостоянныйБитрейт : 224 Кбит/секКаналы : 2 каналаРасположение каналов : Front: L RЧастота : 48,0 КГцМетод сжатия : С потерямиРазмер потока : 126 Мбайт (9%)Выравнивание : Разделение по промежуткамПродолжительность промежутка : 42 мс. (1,00 видеокадр)Время предзагрузки промежутка : 500 мс.
Скриншоты
Скачать

Скачать торрент! Жирафа / Zarafa (Реми Безансон / Rémi Bezançon, Жан-Кристоф Ли / Jean-Christophe Lie) [2012, мультфильм, семейный, HDRip] Dub + Original Fre

Как скачивать? · Что такое торрент? · Рейтинг и ограничения

Сайт не распространяет и не хранит электронные версии произведений, а лишь предоставляет доступ к создаваемому пользователями каталогу ссылок на торрент-файлы, которые содержат только списки хеш-сумм

[Профиль] [ЛС]
Показать сообщения:    
Ответить на тему

Текущее время: Сегодня 04:50

Часовой пояс: GMT + 4



Вы не можете начинать темы
Вы не можете отвечать на сообщения
Вы не можете редактировать свои сообщения
Вы не можете удалять свои сообщения
Вы не можете голосовать в опросах
Вы не можете прикреплять файлы к сообщениям
Вы не можете скачивать файлы