Остров капитанов / 2 серии (Алексей Соловьев) [1985, Кукольный мультфильм, DVDRip]

Ответить на тему
 
Автор Сообщение

user ®

Стаж: 7 лет 7 месяцев

Сообщений: 20008

Пост Пост: #1 от 23-Окт-2015 17:15

[Цитировать]

Остров капитанов / 2 серии
Страна: СССР
Жанр: Кукольный мультфильм
Продолжительность: 00:17:48+00:10:19
Год выпуска: 1985
Русские субтитры: нет
Режиссёр: Алексей Соловьев
Роли озвучивали: О.Табаков, Г.Бурков, Г.Бортников, Е.Киндинов, Н.Караченцов, И.Потоцкая, И.Акулова, Е.Васильева, Г.Иванова, И.Муравьева
Описание: О маленьких капитанах, которые победили страшных пиратов.Два маленьких отважных капитана попали на остров, где заправляют страшные и очень кровожадные пираты. Разве можно таких бояться? Можно! Только капитаны ничего не боятся и всегда побеждают!
Доп. информация: ТО«Экран»
Авторы сценария: С.Прокофьева
Оператор: Л.Кольвинковский
Мультипликаторы: О.Дегтярева,В.Кадухин
Художники:Е.Терлеев,К.Инешин
Релиз группы:
Качество: DVDRip
Формат: AVI
Видео: 704x528 (1.33:1), 25 fps, XviD MPEG-4 ~2099 kbps avg, 0.23 bit/pixel
Аудио: 48 kHz, AC3 Dolby Digital, 2/0 (L,R) ch, ~192.00 kbps avg
Субтитры: нет
Подробные технические данные
Format : AVIFormat/Info : Audio Video InterleaveFile size : 293 MiBDuration : 17mn 48sOverall bit rate : 2 302 KbpsWriting application : VirtualDubModRus 1.5.10.2 (build 2542/release)Copyright : Rutracker.orgComment : DVDRip by dvdss
VideoID : 0Format : MPEG-4 VisualFormat profile : Advanced Simple@L5Format settings, BVOP : 2Format settings, QPel : NoFormat settings, GMC : No warppointsFormat settings, Matrix : CustomCodec ID : XVIDCodec ID/Hint : XviDDuration : 17mn 48sBit rate : 2 100 KbpsWidth : 704 pixelsHeight : 528 pixelsDisplay aspect ratio : 5:4Original display aspect ratio : 4:3Frame rate : 25.000 fpsColor space : YUVChroma subsampling : 4:2:0Bit depth : 8 bitsScan type : ProgressiveCompression mode : LossyBits/(Pixel*Frame) : 0.226Stream size : 267 MiB (91%)Writing library : XviD 65
AudioID : 1Format : AC-3Format/Info : Audio Coding 3Mode extension : CM (complete main)Format settings, Endianness : BigCodec ID : 2000Duration : 17mn 48sBit rate mode : ConstantBit rate : 192 KbpsChannel(s) : 2 channelsChannel positions : Front: L RSampling rate : 48.0 KHzBit depth : 16 bitsCompression mode : LossyStream size : 24.5 MiB (8%)Alignment : Aligned on interleavesInterleave, duration : 40 ms (1.00 video frame)Interleave, preload duration : 512 ms
сравнение с TVRip
Сравнение с [url=http://***/forum/viewtopic.php?t=2578794]http://***/forum/viewtopic.php?t=2578794[/url]
1 серия Тут -- http://screenshotcomparison.com/comparison/147967/picture:2
2 серия Тут -- http://screenshotcomparison.com/comparison/147968/picture:2
Скриншоты
1 серия 2 серия
Скачать

Скачать торрент!

Как скачивать? · Что такое торрент? · Рейтинг и ограничения

Сайт не распространяет и не хранит электронные версии произведений, а лишь предоставляет доступ к создаваемому пользователями каталогу ссылок на торрент-файлы, которые содержат только списки хеш-сумм

[Профиль] [ЛС]
Показать сообщения:    
Ответить на тему

Текущее время: Сегодня 23:51

Часовой пояс: GMT + 4



Вы не можете начинать темы
Вы не можете отвечать на сообщения
Вы не можете редактировать свои сообщения
Вы не можете удалять свои сообщения
Вы не можете голосовать в опросах
Вы не можете прикреплять файлы к сообщениям
Вы не можете скачивать файлы