Я плюю на ваши могилы 3 / I Spit on Your Grave 3 (Р.Д. Браунштейн / R.D. Braunstein) [2015, США, триллер, ужасы, HDRip] MVO (iTunes)

Ответить на тему
 
Автор Сообщение

user ®

Стаж: 7 лет 7 месяцев

Сообщений: 20008

Пост Пост: #1 от 23-Окт-2015 17:15

[Цитировать]

Я плюю на ваши могилы 3 / I Spit on Your Grave 3- Страна: США
Жанр: триллер, ужасы
Год выпуска: 2015
Продолжительность: 01:31:31
Перевод: Профессиональный (многоголосый закадровый) [Лицензия - iTunes]
Cубтитры: нет
Режиссер: Р.Д. Браунштейн / R.D. Braunstein
В ролях: Сара Батлер, Гэбриел Хоган, Даг МакКиэн, Карен Страссман, Дженнифер Лэндон, Кори Крэйг, Лони Перрин, Джошуа Ковальчик, Бобби Рид, Хит МакГоф
Описание:
Главная героиня фильма писательница Дженнифер Хиллз начала новую жизнь. Она посещает психотерапевта, и кризисную группу для жертв изнасилований. В группе она знакомится с бойкой и яркой девушкой, которая убеждает её, что месть — это и есть правосудие. Вместе, они запугивают мужчину, который насилует свою падчерицу-подростка из их группы. А потом, подругу насилует и убивает её бывший парень. Пришло время Дженнифер встретиться со своим прошлым. Понесут ли преступники заслуженное наказание? И по какую сторону окажется сама Дженнифер?
Сэмпл: http://sendfile.su/1167117
Качество видео: HDRip (исходник не известен)
Формат видео: AVI
Видео: XviD, 720x304 (2.35:1), 1859 kbps, 23,976 fps, 0,354 bpp
Аудио: AC3 / 5.1 / 48 kHz / 384 kbps / 16 bit
〤 ОтчетМедиаИнфо 〤
General
Complete name                            : H:\Ya.Pluyu.Na.M0gily.3.2015.D.HDRip.avi
Format                                   : AVI
Format/Info                              : Audio Video Interleave
File size                                : 1.44 GiB
Duration                                 : 1h 31mn
Overall bit rate                         : 2 253 Kbps
Writing application                      : VirtualDubMod 1.5.10.3 | www.virtualdub-fr.org || (build 2550/release)
Video
ID                                       : 0
Format                                   : MPEG-4 Visual
Format profile                           : Advanced Simple@L5
Format settings, BVOP                    : 2
Format settings, QPel                    : No
Format settings, GMC                     : No warppoints
Format settings, Matrix                  : Default (MPEG)
Codec ID                                 : XVID
Codec ID/Hint                            : XviD
Duration                                 : 1h 31mn
Bit rate                                 : 1 860 Kbps
Width                                    : 720 pixels
Height                                   : 304 pixels
Display aspect ratio                     : 2.35:1
Frame rate                               : 23.976 fps
Color space                              : YUV
Chroma subsampling                       : 4:2:0
Bit depth                                : 8 bits
Scan type                                : Progressive
Compression mode                         : Lossy
Bits/(Pixel*Frame)                       : 0.354
Stream size                              : 1.19 GiB (83%)
Writing library                          : XviD 1.2.1 (UTC 2008-12-04)
Audio
ID                                       : 1
Format                                   : AC-3
Format/Info                              : Audio Coding 3
Mode extension                           : CM (complete main)
Codec ID                                 : 2000
Duration                                 : 1h 31mn
Bit rate mode                            : Constant
Bit rate                                 : 384 Kbps
Channel(s)                               : 6 channels
Channel positions                        : Front: L C R, Side: L R, LFE
Sampling rate                            : 48.0 KHz
Bit depth                                : 16 bits
Compression mode                         : Lossy
Stream size                              : 251 MiB (17%)
Alignment                                : Split accross interleaves
Interleave, duration                     : 42 ms (1.00 video frame)
Interleave, preload duration             : 500 ms
Скриншоты
Скачать

Скачать торрент!

Как скачивать? · Что такое торрент? · Рейтинг и ограничения

Сайт не распространяет и не хранит электронные версии произведений, а лишь предоставляет доступ к создаваемому пользователями каталогу ссылок на торрент-файлы, которые содержат только списки хеш-сумм

[Профиль] [ЛС]
Показать сообщения:    
Ответить на тему

Текущее время: Сегодня 20:09

Часовой пояс: GMT + 4



Вы не можете начинать темы
Вы не можете отвечать на сообщения
Вы не можете редактировать свои сообщения
Вы не можете удалять свои сообщения
Вы не можете голосовать в опросах
Вы не можете прикреплять файлы к сообщениям
Вы не можете скачивать файлы