Третья попытка (Игорь Мужжухин) [2015, Россия, мелодрама, WEB-DLRip]

Ответить на тему
 
Автор Сообщение

user ®

Стаж: 7 лет 7 месяцев

Сообщений: 20008

Пост Пост: #1 от 22-Окт-2015 13:24

[Цитировать]

Третья попыткаСтрана: Россия, кинокомпания "Русское"
Год выхода: 2015
Жанр: мелодрама
Продолжительность: 01:30:00-Режиссер: Игорь Мужжухин-В ролях: Екатерина Рябова, Александр Асташёнок, Александр Пашков, Анжелика Кошевая, Пётр Баранчеев, Сергей Ерошенков, Андрей Рогожин, Татьяна Храмова (II)
--Настя и Олег пять лет вместе. Настя - медсестра, Олег - музыкант в оркестре, постоянно пропадающий на репетициях...
Их семейное счастье во многом держится на Насте - нежной, заботливой жене, готовой во всём поддерживать своего любимого.
Но однажды, придя домой раньше времени, Настя застаёт мужа с любовницей. Поддавшись раскаянию Олега,
Настя прощает его, но счастье уже не удаётся сохранить, и семья рушится..
-
-
Сэмпл: http://sendfile.su/1166908
Качество видео: WEB-DLRip
Исходник: WEB-DLRip 1080p
Формат видео: AVI
Видео: XviD (1.2.2) 950kbps 688x384 25.000fps
Аудио: MP3 128kbps 2ch 16bit 44100khz


MediaInfo
MediaInfoLib - v0.7.62
General
Complete name : E:\Контарик\Downloads\Мои раздачи\Третья попытка. 2015г. WEB-DLRip. - kontarik81.avi
Format : AVI
Format/Info : Audio Video Interleave
File size : 702 MiB
Duration : 1h 30mn
Overall bit rate mode : Variable
Overall bit rate : 1 082 Kbps
Writing application : VirtualDubMod 1.5.10.3 | www.virtualdub-fr.org || (build 2550/release)
Writing library : VirtualDubMod build 2550/release
Video
ID : 0
Format : MPEG-4 Visual
Format profile : Advanced Simple@L5
Format settings, BVOP : 1
Format settings, QPel : No
Format settings, GMC : No warppoints
Format settings, Matrix : Default (H.263)
Codec ID : XVID
Codec ID/Hint : XviD
Duration : 1h 30mn
Bit rate : 950 Kbps
Width : 688 pixels
Height : 384 pixels
Display aspect ratio : 16:9
Frame rate : 25.000 fps
Color space : YUV
Chroma subsampling : 4:2:0
Bit depth : 8 bits
Scan type : Progressive
Compression mode : Lossy
Bits/(Pixel*Frame) : 0.144
Stream size : 617 MiB (88%)
Writing library : XviD 1.2.1 (UTC 2008-12-04)
Audio
ID : 1
Format : MPEG Audio
Format version : Version 1
Format profile : Layer 3
Mode : Joint stereo
Mode extension : MS Stereo
Codec ID : 55
Codec ID/Hint : MP3
Duration : 1h 30mn
Bit rate mode : Variable
Bit rate : 119 Kbps
Nominal bit rate : 128 Kbps
Channel(s) : 2 channels
Sampling rate : 44.1 KHz
Compression mode : Lossy
Stream size : 77.4 MiB (11%)
Alignment : Aligned on interleaves
Interleave, duration : 26 ms (0.65 video frame)
Interleave, preload duration : 160 ms
Writing library : LAME3.99r
Encoding settings : -m j -V 4 -q 2 -lowpass 17 --abr 128
Скриншот c названием фильма Скриншоты
Скачать

Скачать торрент!

Как скачивать? · Что такое торрент? · Рейтинг и ограничения

Сайт не распространяет и не хранит электронные версии произведений, а лишь предоставляет доступ к создаваемому пользователями каталогу ссылок на торрент-файлы, которые содержат только списки хеш-сумм

[Профиль] [ЛС]
Показать сообщения:    
Ответить на тему

Текущее время: Сегодня 02:07

Часовой пояс: GMT + 4



Вы не можете начинать темы
Вы не можете отвечать на сообщения
Вы не можете редактировать свои сообщения
Вы не можете удалять свои сообщения
Вы не можете голосовать в опросах
Вы не можете прикреплять файлы к сообщениям
Вы не можете скачивать файлы