Незнайка на Луне / 12 серий (Юрий Бутырин, Андрей Игнатенко, Александр Люткевич) [1997-1999, Рисованный мультфильм, WEBRip] (многосерийная версия)

Ответить на тему
 
Автор Сообщение

user ®

Стаж: 7 лет 7 месяцев

Сообщений: 20008

Пост Пост: #1 от 22-Окт-2015 01:00

[Цитировать]

Незнайка на Луне / 12 серий (телевизионная многосерийная версия)
Страна: Россия
Жанр: Рисованный мультфильм
Продолжительность: ~170 минут
Год выпуска: 1997-1999
Русские субтитры: нет
Режиссёр: Юрий Бутырин, Андрей Игнатенко, Александр Люткевич
Роли озвучивали: Венера Рахимова, Кристина Орбакайте, Светлана Степченко, Алексей Борзунов, Клара Румянова, Александр Леньков, Артем Карапетян, Михаил Кононов, Светлана Харлап и др.
Описание: "Незнайка на Луне" - грандиозный анимационный проект с участием звездных голосов российской эстрады Кристины Орбакайте в роли Звездочки и Валерия Меладзе с песенным хитом, как лейтмотивом фильма.
В очаровательной детской фантастике с захватывающим сюжетом, юмором и добротой за развлекательным жанром кроется глубокий смысл. Наряду с приключениями ребенка ждут жизненно важные знания об экономике, физике и астрономии. Веселая и поучительная история еще раз напомнит о вечных истинах, о том, что добро всегда побеждает зло.
Это интересная и поучительная сказка не оставит никого равнодушным и доставит огромное удовольствие от просмотра.
Доп. информация:
1. Загадка Лунного Камня. - 00:14:25
2. Грандиозный замысел Знайки. - 00:13:54
3. Незнайка и Пончик летят на Луну. - 00:14:53
4. Первый день на Луне. - 00:14:11
5. Звёздочка. - 00:14:21
6. Дорогие друзья. - 00:14:00.
7. Акционерное общество гигантских растений. 00:14:22.
8. Большой бредлам. - 00:14:35
9. Незнайка ищет работу. - 00:14:06
10. Куда исчезла ракета. - 00:14:01
11. Знайка спешит на помощь. - 00:15:07
12. Дорога домой. - 00:14:37
Раздача группы:
Качество: WEBRip
Формат: AVI
Видео: 704x544 (1.29:1), 25 fps, XviD build 73 ~1965 kbps avg, 0.20 bit/pixel
Аудио: 48 kHz, AC3 Dolby Digital, 2/0 (L,R) ch, ~192.00 kbps avg
Субтитры: нет
Подробные технические данные
Format : AVIFormat/Info : Audio Video InterleaveFile size : 224 MiBDuration : 14mn 25sOverall bit rate : 2 168 KbpsWriting application : VirtualDubMod 1.5.10.3 | www.virtualdub-fr.org || (build 2550/release)Writing library : VirtualDubMod build 2550/release
VideoID : 0Format : MPEG-4 VisualFormat profile : Advanced Simple@L5Format settings, BVOP : 1Format settings, QPel : NoFormat settings, GMC : No warppointsFormat settings, Matrix : Default (MPEG)Codec ID : XVIDCodec ID/Hint : XviDDuration : 14mn 25sBit rate : 1 966 KbpsWidth : 704 pixelsHeight : 544 pixelsDisplay aspect ratio : 1.294Frame rate : 25.000 fpsColor space : YUVChroma subsampling : 4:2:0Bit depth : 8 bitsScan type : ProgressiveCompression mode : LossyBits/(Pixel*Frame) : 0.205Stream size : 203 MiB (91%)Writing library : XviD 73
AudioID : 1Format : AC-3Format/Info : Audio Coding 3Mode extension : CM (complete main)Format settings, Endianness : BigCodec ID : 2000Duration : 14mn 25sBit rate mode : ConstantBit rate : 192 KbpsChannel(s) : 2 channelsChannel positions : Front: L RSampling rate : 48.0 KHzBit depth : 16 bitsCompression mode : LossyStream size : 19.8 MiB (9%)Alignment : Split accross interleavesInterleave, duration : 40 ms (1.00 video frame)Interleave, preload duration : 500 ms
Скриншоты
серия1 серия2 серия3 серия4 серия5 серия6 серия7 серия8 серия9 серия10 серия11 серия12
Скачать

Скачать торрент!

Как скачивать? · Что такое торрент? · Рейтинг и ограничения

Сайт не распространяет и не хранит электронные версии произведений, а лишь предоставляет доступ к создаваемому пользователями каталогу ссылок на торрент-файлы, которые содержат только списки хеш-сумм

[Профиль] [ЛС]
Показать сообщения:    
Ответить на тему

Текущее время: Сегодня 15:53

Часовой пояс: GMT + 4



Вы не можете начинать темы
Вы не можете отвечать на сообщения
Вы не можете редактировать свои сообщения
Вы не можете удалять свои сообщения
Вы не можете голосовать в опросах
Вы не можете прикреплять файлы к сообщениям
Вы не можете скачивать файлы