Мистер Холмс / Mr. Holmes (Билл Кондон / Bill Condon) [2015, Великобритания, США, драма, детектив, HDRip] Sub Rus + Original Eng

Ответить на тему
 
Автор Сообщение

user ®

Стаж: 7 лет 7 месяцев

Сообщений: 20008

Пост Пост: #1 от 21-Окт-2015 00:15

[Цитировать]

Мистер Холмс / Mr. Holmes
Страна: Великобритания, США
Жанр: драма, детектив
Год выпуска: 2015
Продолжительность: 01:44:00
Перевод: Субтитры
Cубтитры: русские
Оригинальная аудиодорожка: английский
Режиссер: Билл Кондон / Bill Condon
В ролях: Иэн МакКеллен, Лора Линни, Майло Паркер, Хироюки Санада, Хэтти Морахэн, Патрик Кеннеди, Роджер Аллам, Филип Дэвис, Фрэнсис де ла Тур
Описание: 1947 год. Постаревший Шерлок Холмс живет в маленькой деревушке с домработницей и ее сыном. Мирную старость и увлечение пчелами омрачает лишь тайна последнего, нераскрытого дела.
Сэмпл: http://sendfile.su/1165507
Качество видео: HDRip
Формат видео: AVI
Видео: XviD, 720x304 (2.35:1), 23,976 fps, 1748 kbps
Аудио: AC-3, 48 kHz, 2 ch, 192 kbps
Формат субтитров: softsub (SRT)
MediaInfo
Формат : AVI
Формат/Информация : Audio Video Interleave
Профиль формата : OpenDML
Настройки формата : rec
Размер файла : 1,41 Гбайт
Продолжительность : 1 ч. 44 м.
Общий поток : 1946 Кбит/сек
Программа кодирования : AVI-Mux GUI 1.17.8.3, Feb 16 201019:42:50
Видео
Идентификатор : 0
Формат : MPEG-4 Visual
Профиль формата : Advanced Simple@L5
Параметр BVOP формата : 2
Параметр QPel формата : Нет
Параметр GMC формата : Без точки перехода
Параметр матрицы формата : Default (H.263)
Режим смешивания : Сжатый битовый поток
Идентификатор кодека : XVID
Идентификатор кодека/Подсказка : XviD
Продолжительность : 1 ч. 44 м.
Битрейт : 1748 Кбит/сек
Ширина : 720 пикселей
Высота : 304 пикселя
Соотношение сторон : 2,35:1
Частота кадров : 23,976 кадра/сек
Цветовое пространство : YUV
Субдискретизация насыщенности : 4:2:0
Битовая глубина : 8 бит
Тип развёртки : Прогрессивная
Метод сжатия : С потерями
Бит/(Пиксели*Кадры) : 0.333
Размер потока : 1,27 Гбайт (90%)
Библиотека кодирования : XviD 73
Аудио
Идентификатор : 1
Формат : AC-3
Формат/Информация : Audio Coding 3
Расширение режима : CM (complete main)
Параметр Endianness формата : Big
Идентификатор кодека : 2000
Продолжительность : 1 ч. 44 м.
Вид битрейта : Постоянный
Битрейт : 192 Кбит/сек
Каналы : 2 канала
Расположение каналов : Front: L R
Частота : 48,0 КГц
Битовая глубина : 16 бит
Метод сжатия : С потерями
Размер потока : 143 Мбайт (10%)
Выравнивание : Соединение по промежуткам
Продолжительность промежутка : 64 мс. (1,53 видеокадра)
Время предзагрузки промежутка : 192 мс.
Заголовок : ac3
Субтитры
193
00:19:15,417 --> 00:19:18,251
Она любила музыку, так что я предложил
стеклянную гармонику.
194
00:19:18,253 --> 00:19:19,652
Гармонику?
195
00:19:19,654 --> 00:19:21,453
Наиболее ценное владение моего отца.
196
00:19:21,455 --> 00:19:23,154
Он играл на ней постоянно, до самого дня смерти.
197
00:19:24,022 --> 00:19:26,123
Я принес ее в дом
198
00:19:26,125 --> 00:19:28,225
и договорился о месяце занятий.
199
00:19:28,960 --> 00:19:29,659
По одному часу в неделю.
200
00:19:30,494 --> 00:19:31,827
Вскоре Энн попросила меня
201
00:19:31,829 --> 00:19:33,328
об увеличение числа уроков до двух в неделю.
202
00:19:34,196 --> 00:19:36,430
Затем до трех.
Затем - каждый день.
203
00:19:37,999 --> 00:19:40,500
Итак, она нашла призвание, как вы и надеялись.
204
00:19:41,368 --> 00:19:43,502
Почему вы здесь, мистер Келмот?
205
00:19:43,504 --> 00:19:47,038
Мистер Холмс, моя Энн изменилась.
206
00:19:47,939 --> 00:19:49,806
И это не просто уроки
207
00:19:49,808 --> 00:19:51,741
или ее одержимость инструментом.
208
00:19:53,477 --> 00:19:55,010
Однажды я был за пределами комнаты
209
00:19:55,012 --> 00:19:56,677
и вдруг она перестала играть.
210
00:19:59,447 --> 00:20:01,548
Я услышал, как она сказала, совершенно ясно...
211
00:20:02,716 --> 00:20:05,583
Грейс? Джеймс?
212
00:20:07,619 --> 00:20:10,220
Имена ваших детей?
213
00:20:11,222 --> 00:20:12,422
Когда я спросил Энн об этом, она все отрицала.
Скриншот c названием фильма Скриншоты
Скачать

Скачать торрент!

Как скачивать? · Что такое торрент? · Рейтинг и ограничения

Сайт не распространяет и не хранит электронные версии произведений, а лишь предоставляет доступ к создаваемому пользователями каталогу ссылок на торрент-файлы, которые содержат только списки хеш-сумм

[Профиль] [ЛС]
Показать сообщения:    
Ответить на тему

Текущее время: Сегодня 04:49

Часовой пояс: GMT + 4



Вы не можете начинать темы
Вы не можете отвечать на сообщения
Вы не можете редактировать свои сообщения
Вы не можете удалять свои сообщения
Вы не можете голосовать в опросах
Вы не можете прикреплять файлы к сообщениям
Вы не можете скачивать файлы