Я не вернусь / I won\'t come back (Ильмар Рааг / Ilmar Raag) [2014, Россия, Эстония, Финляндия, Белоруссия, Казахстан, социальная драма, дорожная притча, WEB-DLRip]

Ответить на тему
 
Автор Сообщение

user ®

Стаж: 7 лет 7 месяцев

Сообщений: 20008

Пост Пост: #1 от 20-Окт-2015 08:45

[Цитировать]

Я не вернусь / I won't come back
Жанр: социальная драма, дорожная притча
Год выпуска: 2014
Совместное производство: Россия, Эстония, Финляндия, Белоруссия, Казахстан
Продолжительность: 01:45:06
Режиссёр: Ильмар Рааг / Ilmar Raag
Актёры: Полина Пушкарук, Виктория Лобачева, Андрей Астраханцев, Сергей Яценюк, Ольга Белинская, Алла Еминцева, Александра Лесникова, Юрий Орлов, Галина Мочалова, Татьяна Зыкова, Лиана Сергеева, Дарья Гаврилова, Александр Передков, Наталья Третьякова, Ирина Основина, Людмила Елисеева, Наталья Сизова, Александр Карпухов, Клавдия Белова, Светлана Никифорова, Анна Кисель, Георгий Волчек, Татьяна Бовкалова, Анастасия Боброва, Геннадий Фомин, Виктор Васильев, Марат Омаров, Мария Шенцева и др.
Краткая аннотация к фильму: ...у одной девочки, были крылья, и она улететь хотела, далеко-далеко... А потом эти крылышки сломались, а их же уже не починить ни как, потому что крылышки, только один раз бог дает, понимаете?...

Качество видео: WEB-DLRip
Формат видео: AVI
Video: 720x304 (2.37:1), 25 fps, XviD build 73 ~1513 kbps avg, 0.28 bit/pixel
Audio: 48 kHz, AC3 Dolby Digital, 3/2 (L,C,R,l,r) + LFE ch, ~448 kbps
MediaInfo
ОбщееПолное имя : V:\Я_не_вернусь_2014_WEB-DLRip_[***].aviФормат : AVIФормат/Информация : Audio Video InterleaveРазмер файла : 1,45 ГбайтПродолжительность : 1 ч. 45 м.Общий поток : 1971 Кбит/секПрограмма кодирования : VirtualDubMod 1.5.10.3 | www.virtualdub-fr.org || (build 2550/release)Библиотека кодирования : VirtualDubMod build 2550/release
ВидеоИдентификатор : 0Формат : MPEG-4 VisualПрофиль формата : Advanced Simple@L5Параметр BVOP формата : 1Параметр QPel формата : НетПараметр GMC формата : Без точки переходаПараметр матрицы формата : ВыборочнаяИдентификатор кодека : XVIDИдентификатор кодека/Подсказка : XviDПродолжительность : 1 ч. 45 м.Битрейт : 1514 Кбит/секШирина : 720 пикселейВысота : 304 пикселяСоотношение сторон : 2,35:1Частота кадров : 25,000 кадров/секЦветовое пространство : YUVСубдискретизация насыщенности : 4:2:0Битовая глубина : 8 битТип развёртки : ПрогрессивнаяМетод сжатия : С потерямиБит/(Пиксели*Кадры) : 0.277Размер потока : 1,11 Гбайт (77%)Библиотека кодирования : XviD 73
АудиоИдентификатор : 1Формат : AC-3Формат/Информация : Audio Coding 3Расширение режима : CM (complete main)Параметр Endianness формата : BigИдентификатор кодека : 2000Продолжительность : 1 ч. 45 м.Вид битрейта : ПостоянныйБитрейт : 448 Кбит/секКаналы : 6 каналовРасположение каналов : Front: L C R, Side: L R, LFEЧастота : 48,0 КГцБитовая глубина : 16 битМетод сжатия : С потерямиРазмер потока : 337 Мбайт (23%)Выравнивание : Разделение по промежуткамПродолжительность промежутка : 40 мс. (1,00 видеокадр)Время предзагрузки промежутка : 500 мс.
Скриншот c названием фильма Скриншоты Время раздачи - по возможности.
Скачать

Скачать торрент!

Как скачивать? · Что такое торрент? · Рейтинг и ограничения

Сайт не распространяет и не хранит электронные версии произведений, а лишь предоставляет доступ к создаваемому пользователями каталогу ссылок на торрент-файлы, которые содержат только списки хеш-сумм

[Профиль] [ЛС]
Показать сообщения:    
Ответить на тему

Текущее время: Сегодня 08:11

Часовой пояс: GMT + 4



Вы не можете начинать темы
Вы не можете отвечать на сообщения
Вы не можете редактировать свои сообщения
Вы не можете удалять свои сообщения
Вы не можете голосовать в опросах
Вы не можете прикреплять файлы к сообщениям
Вы не можете скачивать файлы