Ваня Датский (Николай Серебряков) [1974, Кукольный мультфильм, DVDRip]

Ответить на тему
 
Автор Сообщение

user ®

Стаж: 7 лет 7 месяцев

Сообщений: 20008

Пост Пост: #1 от 19-Окт-2015 23:24

[Цитировать]

Ваня Датский
Страна: СССР
Жанр: Кукольный мультфильм
Продолжительность: 00:15:24
Год выпуска: 1974
Русские субтитры: нет
Режиссёр: Николай Серебряков
Описание: мультфильм о поморском мальчике, который уплыл за море и до зрелых лет прожил в чужих краях в довольстве и счастии, но все же вернулся на родную землю, к матери, что ждала его долгие годы.
(по мотивам архангельской были Б. Шергина)
Доп. информация: "Союзмультфильм"
Раздача группы:
Качество: DVDRip
Формат: AVI
Видео: 704x560 (1.26:1), 25 fps, DivX Codec 6.8 ~2200 kbps avg, 0.22 bit/pixel
Аудио: 48 kHz, MPEG Layer 3, 1 ch, ~128.00 kbps avg
Субтитры: нет
Подробные технические данные
Format : AVIFormat/Info : Audio Video InterleaveFile size : 258 MiBDuration : 15mn 24sOverall bit rate : 2 338 KbpsWriting application : VirtualDubMod 1.5.10.2 (build 2542/release)Writing library : VirtualDubMod build 2542/release
VideoID : 0Format : MPEG-4 VisualFormat settings, BVOP : 1Format settings, QPel : NoFormat settings, GMC : No warppointsFormat settings, Matrix : Default (H.263)Muxing mode : Packed bitstreamCodec ID : DX50Codec ID/Hint : DivX 5Duration : 15mn 24sBit rate : 2 201 KbpsWidth : 704 pixelsHeight : 560 pixelsDisplay aspect ratio : 5:4Original display aspect ratio : 5:4Frame rate : 25.000 fpsColor space : YUVChroma subsampling : 4:2:0Bit depth : 8 bitsScan type : ProgressiveCompression mode : LossyBits/(Pixel*Frame) : 0.223Stream size : 242 MiB (94%)Writing library : DivX 6.8.0 (UTC 2007-12-04)
AudioID : 1Format : MPEG AudioFormat version : Version 1Format profile : Layer 3Codec ID : 55Codec ID/Hint : MP3Duration : 15mn 24sBit rate mode : ConstantBit rate : 128 KbpsChannel(s) : 1 channelSampling rate : 48.0 KHzCompression mode : LossyStream size : 14.1 MiB (5%)Alignment : Aligned on interleavesInterleave, duration : 40 ms (1.00 video frame)Interleave, preload duration : 504 msWriting library : LAME3.97Encoding settings : -m m -V 4 -q 0 -b 128
Скриншоты
Скачать

Скачать торрент!

Как скачивать? · Что такое торрент? · Рейтинг и ограничения

Сайт не распространяет и не хранит электронные версии произведений, а лишь предоставляет доступ к создаваемому пользователями каталогу ссылок на торрент-файлы, которые содержат только списки хеш-сумм

[Профиль] [ЛС]
Показать сообщения:    
Ответить на тему

Текущее время: Сегодня 00:35

Часовой пояс: GMT + 4



Вы не можете начинать темы
Вы не можете отвечать на сообщения
Вы не можете редактировать свои сообщения
Вы не можете удалять свои сообщения
Вы не можете голосовать в опросах
Вы не можете прикреплять файлы к сообщениям
Вы не можете скачивать файлы