Битва за Севастополь (Сергей Мокрицкий) [2015, Россия, Украина, военный, драма, мелодрама, боевик, BDRip-AVC]

Ответить на тему
 
Автор Сообщение

user ®

Стаж: 7 лет 7 месяцев

Сообщений: 20008

Пост Пост: #1 от 19-Окт-2015 11:00

[Цитировать]

Битва за Севастополь- Страна: Россия, Украина | Кинодел, Новые люди
Жанр: военный, драма, мелодрама, боевик
Год выпуска: 2015
Продолжительность: 02:02:49 час.
Субтитры: Отсутствуют
Навигация по главам: Присутствует (12 глав)
Режиссер: Сергей Мокрицкий
В ролях: Юлия Пересильд, Евгений Цыганов, Олег Васильков, Никита Тарасов, Джоан Блэкэм, Полина Пахомова, Владимир Лилицкий, Анатолий Кот, Нателла Абелева-Таганова, Валерий ГришкоОписание:
Любовь под нескончаемым огнем противника, дружба с Элеонорой Рузвельт, выступление на конференции, повлиявшее на исход Второй мировой войны, желание жить и страх потерять любимого человека — справится ли со всем этим хрупкая женщина?
Это реальная история Людмилы Павличенко — легендарной женщины-снайпера. Солдаты шли в бой с ее именем на устах, а враги устроили на нее охоту. На поле битвы она видела смерть и страдания, но самым серьезным испытанием для нее стала любовь, которую у нее могла забрать война…

Качество видео: BDRip-AVC => Сэмпл | исх. Битва за Севастополь / Незламна (2015) BDRemux - HDCLUB
Формат видео: MKV
Видео: 1130x472p (2.40:1), 24,000 fps, H.264 ~3 368 kbps avg, 0.257 bit/pixel
Аудио: 48 kHz, AC3, 3/2 (L,C,R,l,r) + LFE ch, ~448.00 kbps avg | Оригинал (русский)
MediaInfo | log x264
log x264
raw [info]: 1130x472p 1:1 @ 24/1 fps (cfr)
x264 [info]: using SAR=1/1
x264 [info]: using cpu capabilities: MMX2 SSE2Fast SSSE3 SSE4.2 AVX
x264 [info]: profile High, level 4.1
x264 [info]: cabac=1 ref=14 deblock=1:-3:-2 analyse=0x3:0x133 me=umh subme=11 psy=1 fade_compensate=0.00 psy_rd=1.00:0.00 mixed_ref=1 me_range=32 chroma_me=1 trellis=2 8x8dct=1 cqm=0 deadzone=21,11 fast_pskip=0 chroma_qp_offset=-2 threads=6 lookahead_threads=1 sliced_threads=0 nr=0 decimate=1 interlaced=0 bluray_compat=0 constrained_intra=0 fgo=0 bframes=11 b_pyramid=2 b_adapt=2 b_bias=0 direct=1 weightb=1 open_gop=0 weightp=2 keyint=250 keyint_min=24 scenecut=40 intra_refresh=0 rc_lookahead=40 rc=crf mbtree=0 crf=17.2000 qcomp=0.65 qpmin=0 qpmax=69 qpstep=4 vbv_maxrate=50000 vbv_bufsize=62500 crf_max=0.0 nal_hrd=none filler=0 ip_ratio=1.40 pb_ratio=1.30 aq=3:0.95
x264 [info]: frame I:1159 Avg QP:14.55 size: 76040
x264 [info]: frame P:39978 Avg QP:16.20 size: 32768
x264 [info]: frame B:135728 Avg QP:18.14 size: 12556
x264 [info]: consecutive B-frames: 1.9% 2.2% 9.5% 27.6% 18.0% 35.0% 2.9% 0.7% 1.0% 0.2% 0.3% 0.6%
x264 [info]: mb I I16..4: 5.9% 73.8% 20.3%
x264 [info]: mb P I16..4: 1.5% 19.8% 3.4% P16..4: 25.5% 29.3% 12.7% 2.5% 0.3% skip: 5.0%
x264 [info]: mb B I16..4: 0.4% 3.2% 0.5% B16..8: 32.8% 22.4% 4.5% direct: 8.0% skip:28.2% L0:41.8% L1:42.6% BI:15.7%
x264 [info]: 8x8 transform intra:79.1% inter:55.8%
x264 [info]: coded y,uvDC,uvAC intra: 82.4% 63.0% 37.8% inter: 31.4% 20.5% 2.4%
x264 [info]: i16 v,h,dc,p: 33% 14% 5% 47%
x264 [info]: i8 v,h,dc,ddl,ddr,vr,hd,vl,hu: 12% 9% 12% 9% 12% 11% 11% 11% 13%
x264 [info]: i4 v,h,dc,ddl,ddr,vr,hd,vl,hu: 17% 10% 13% 7% 12% 11% 10% 9% 11%
x264 [info]: i8c dc,h,v,p: 31% 39% 19% 11%
x264 [info]: Weighted P-Frames: Y:9.0% UV:3.6%
x264 [info]: ref P L0: 44.1% 11.8% 15.9% 6.4% 4.9% 3.6% 3.3% 2.0% 1.7% 1.4% 1.3% 1.1% 1.1% 1.1% 0.2% 0.0%
x264 [info]: ref B L0: 74.4% 10.1% 4.9% 2.7% 1.8% 1.5% 1.4% 0.8% 0.7% 0.6% 0.5% 0.3% 0.2%
x264 [info]: ref B L1: 93.5% 6.5%
x264 [info]: kb/s:3367.86
encoded 176865 frames, 3.68 fps, 3367.86 kb/s
General
Unique ID : 219190075905067862519495416242273247391 (0xA4E6791B1A5AAA9CAB32EA2C9623E09F)
Complete name : Battle.For.Sevastopol.2015.BDRip-AVC.by.zOJIOtOi.mkv
Format : Matroska
Format version : Version 4 / Version 2
File size : 3.28 GiB
Duration : 2h 2mn
Overall bit rate : 3 818 Kbps
Encoded date : UTC 2015-05-21 13:25:21
Writing application : mkvmerge v7.0.0 ('Where We Going') 64bit built on Jun 9 2014 15:16:27
Writing library : libebml v1.3.0 + libmatroska v1.4.1
DURATION : 02:02:49.344000000
NUMBER_OF_FRAMES : 230292
NUMBER_OF_BYTES : 412683264
_STATISTICS_WRITING_APP : mkvmerge v7.0.0 ('Where We Going') 64bit built on Jun 9 2014 15:16:27
_STATISTICS_WRITING_DATE_UTC : 2015-05-21 13:25:21
_STATISTICS_TAGS : BPS DURATION NUMBER_OF_FRAMES NUMBER_OF_BYTES
Attachment : Yes
Video
ID : 1
Format : AVC
Format/Info : Advanced Video Codec
Format profile : High@L4.1
Format settings, CABAC : Yes
Format settings, ReFrames : 14 frames
Codec ID : V_MPEG4/ISO/AVC
Duration : 2h 2mn
Bit rate : 3 294 Kbps
Width : 1 130 pixels
Height : 472 pixels
Display aspect ratio : 2.40:1
Frame rate mode : Constant
Frame rate : 24.000 fps
Color space : YUV
Chroma subsampling : 4:2:0
Bit depth : 8 bits
Scan type : Progressive
Bits/(Pixel*Frame) : 0.257
Stream size : 2.83 GiB (86%)
Title : tRuAVC | by zOJIOtOi
Writing library : x264 core 146 r2538kMod 121396c
Encoding settings : cabac=1 / ref=14 / deblock=1:-3:-2 / analyse=0x3:0x133 / me=umh / subme=11 / psy=1 / fade_compensate=0.00 / psy_rd=1.00:0.00 / mixed_ref=1 / me_range=32 / chroma_me=1 / trellis=2 / 8x8dct=1 / cqm=0 / deadzone=21,11 / fast_pskip=0 / chroma_qp_offset=-2 / threads=6 / lookahead_threads=1 / sliced_threads=0 / nr=0 / decimate=1 / interlaced=0 / bluray_compat=0 / constrained_intra=0 / fgo=0 / bframes=11 / b_pyramid=2 / b_adapt=2 / b_bias=0 / direct=1 / weightb=1 / open_gop=0 / weightp=2 / keyint=250 / keyint_min=24 / scenecut=40 / intra_refresh=0 / rc_lookahead=40 / rc=crf / mbtree=0 / crf=17.2000 / qcomp=0.65 / qpmin=0 / qpmax=69 / qpstep=4 / vbv_maxrate=50000 / vbv_bufsize=62500 / crf_max=0.0 / nal_hrd=none / filler=0 / ip_ratio=1.40 / pb_ratio=1.30 / aq=3:0.95
Language : Russian
Default : Yes
Forced : No
DURATION : 02:02:49.375000000
NUMBER_OF_FRAMES : 176865
NUMBER_OF_BYTES : 3102376703
_STATISTICS_WRITING_APP : mkvmerge v7.0.0 ('Where We Going') 64bit built on Jun 9 2014 15:16:27
_STATISTICS_WRITING_DATE_UTC : 2015-05-21 13:25:21
_STATISTICS_TAGS : BPS DURATION NUMBER_OF_FRAMES NUMBER_OF_BYTES
Color primaries : BT.709
Transfer characteristics : BT.709
Matrix coefficients : BT.709
Audio
ID : 2
Format : AC-3
Format/Info : Audio Coding 3
Mode extension : CM (complete main)
Format settings, Endianness : Big
Codec ID : A_AC3
Duration : 2h 2mn
Bit rate mode : Constant
Bit rate : 448 Kbps
Channel(s) : 6 channels
Channel positions : Front: L C R, Side: L R, LFE
Sampling rate : 48.0 KHz
Bit depth : 16 bits
Compression mode : Lossy
Stream size : 394 MiB (12%)
Title : DD 5.1 @ 448 kbps
Language : Russian
Default : Yes
Forced : No
Menu
00:00:00.000 : en:00:00:00.000
00:10:08.250 : en:00:10:08.250
00:22:45.250 : en:00:22:45.250
00:31:29.458 : en:00:31:29.458
00:44:22.083 : en:00:44:22.083
00:51:33.833 : en:00:51:33.833
01:00:40.458 : en:01:00:40.458
01:10:27.917 : en:01:10:27.917
01:21:30.458 : en:01:21:30.458
01:31:47.458 : en:01:31:47.458
01:43:17.583 : en:01:43:17.583
01:56:30.333 : en:01:56:30.333
Скриншоты source vs zOJIOtOi
source

rip by zOJIOtOi
Релиз групп:
Скачать

Скачать торрент!

Как скачивать? · Что такое торрент? · Рейтинг и ограничения

Сайт не распространяет и не хранит электронные версии произведений, а лишь предоставляет доступ к создаваемому пользователями каталогу ссылок на торрент-файлы, которые содержат только списки хеш-сумм

[Профиль] [ЛС]
Показать сообщения:    
Ответить на тему

Текущее время: Сегодня 00:35

Часовой пояс: GMT + 4



Вы не можете начинать темы
Вы не можете отвечать на сообщения
Вы не можете редактировать свои сообщения
Вы не можете удалять свои сообщения
Вы не можете голосовать в опросах
Вы не можете прикреплять файлы к сообщениям
Вы не можете скачивать файлы