Толстяк против всех / Paul Blart: Mall Cop 2 (Энди Фикмен / Andy Fickman) [2015, США, боевик, комедия, HDRip] MVO

Ответить на тему
 
Автор Сообщение

user ®

Стаж: 7 лет 7 месяцев

Сообщений: 20008

Пост Пост: #1 от 19-Окт-2015 11:00

[Цитировать]

Толстяк против всех / Paul Blart: Mall Cop 2- Страна: США
Жанр: боевик, комедия
Год выпуска: 2015
Продолжительность: 01:34:00
Перевод: Профессиональный (многоголосый закадровый) Лицензия
Cубтитры: нет-Режиссер: Энди Фикмен / Andy Fickman-В ролях: Кевин Джеймс, Рейни Родригес, Эдуардо Верастеги, Даниэлла Алонсо, Нил МакДонаф, Дэвид Генри, Д.Б. Вудсайд, Николас Туртурро, Лони Лав, Гари Валентайн.-Описание: Охранник Пол отправляется в Лас-Вегас, чтобы посетить посвященную охране выставку вместе со своей дочерью Майей, прежде чем она уедет в колледж. На выставке Пол случайно узнает об ограблении и решает задержать преступников.-Download sample-Качество видео: HDRip (MegaPeer)
Формат видео: AVI
Видео: 688x368 (1.85:1), 23.976 fps, XviD build 73 ~974 kbps avg, 0.16 bit/pixel
Аудио: 48 kHz, MPEG Layer 3, 2 ch, ~128.00 kbps avg

Инфо
Format : AVI
Format/Info : Audio Video Interleave
File size : 747 MiB
Duration : 1h 34mn
Overall bit rate : 1 112 Kbps
Writing application : VirtualDubMod 1.5.10.3 | www.virtualdub-fr.org || (build 2550/release)
Writing library : VirtualDubMod build 2550/release
Video
ID : 0
Format : MPEG-4 Visual
Format profile : Advanced Simple@L5
Format settings, BVOP : Yes
Format settings, QPel : No
Format settings, GMC : No warppoints
Format settings, Matrix : Custom
Codec ID : XVID
Codec ID/Hint : XviD
Duration : 1h 34mn
Bit rate : 974 Kbps
Width : 688 pixels
Height : 368 pixels
Display aspect ratio : 1.870
Frame rate : 23.976 fps
Color space : YUV
Chroma subsampling : 4:2:0
Bit depth : 8 bits
Scan type : Progressive
Bits/(Pixel*Frame) : 0.160
Stream size : 655 MiB (88%)
Writing library : XviD 73
Audio
ID : 1
Format : MPEG Audio
Format version : Version 1
Format profile : Layer 3
Codec ID : 55
Codec ID/Hint : MP3
Duration : 1h 34mn
Bit rate mode : Constant
Bit rate : 128 Kbps
Channel(s) : 2 channels
Sampling rate : 48.0 KHz
Stream size : 86.1 MiB (12%)
Alignment : Aligned on interleaves
Interleave, duration : 42 ms (1.00 video frame)
Interleave, preload duration : 504 ms
Writing library : LAME3.99r
Encoding settings : -m s -V 4 -q 2 -lowpass 17 -b 128
Скриншоты
Скачать

Скачать торрент!

Как скачивать? · Что такое торрент? · Рейтинг и ограничения

Сайт не распространяет и не хранит электронные версии произведений, а лишь предоставляет доступ к создаваемому пользователями каталогу ссылок на торрент-файлы, которые содержат только списки хеш-сумм

[Профиль] [ЛС]
Показать сообщения:    
Ответить на тему

Текущее время: Сегодня 09:48

Часовой пояс: GMT + 4



Вы не можете начинать темы
Вы не можете отвечать на сообщения
Вы не можете редактировать свои сообщения
Вы не можете удалять свои сообщения
Вы не можете голосовать в опросах
Вы не можете прикреплять файлы к сообщениям
Вы не можете скачивать файлы