Утраченное и обретенное / Alag Alag (Шакти Саманта / Shakti Samanta) [1985, Индия, Мелодрама, LDRip] VO (Nastia)

Ответить на тему
 
Автор Сообщение

user ®

Стаж: 12 лет

Сообщений: 15092

Пост Пост: #1 от 19-Окт-2015 01:45

[Цитировать]

Утраченное и обретенное / Alag Alag
Страна: Индия
Жанр: Мелодрама
Год выпуска: 1985
Продолжительность: 02:41:05
Перевод: Одноголосый закадровый Nastia
Cубтитры: нет
Режиссер: Шакти Саманта / Shakti Samanta
В ролях: Раджеш Кханна, Шаши Капур, Тина Муним, Сушма Сетх, Ом Пракаш, Девен Верма, Урмила Бхатт, Ом Шивпури, Гита Сиддхарт, Харбанс Даршан
Описание: Отчаянно хочет разбогатеть девушка из деревни (Тина Муним). Предан музыке талантливый парень (Раджеш Кханна). Пусть разные мечты. Пусть разные социальные заморочки. Но святая к музыке любовь одна и навсегда. И романтические чувства, нежные и такие красивые, что ради этого стоит жить. И петь. И надеяться. И любить.
Доп. информация:
Автор релиза: керелис (Спасибо!)
Озвучка: Nastia (Спасибо!)
Материалы: larisa_k (Спасибо!)
Перевод субтитров: Verafisher2007 (Спасибо!)
Сэмпл: http://multi-up.com/1071775
Качество видео: LDRip
Формат видео: AVI
Видео: XviD build 50, 480x360 (1.33:1), 25 fps, 709 kbps avg
Аудио: MPEG Layer 3, 44.100 kHz, 2/0 (L,R) ch, 192.00 kbps
MediaInfo
General
Complete name : F:\Utrachennoye.i.obretennoye.1985.VCDRip.XviD.BWTorrents.avi
Format : AVI
Format/Info : Audio Video Interleave
File size : 1.03 GiB
Duration : 2h 41mn
Overall bit rate : 911 Kbps
Writing application : MEncoder SVN-r33883(20110719-gcc4.5.2)
Writing library : VirtualDub build 35491/release
Video
ID : 0
Format : MPEG-4 Visual
Format profile : AdvancedSimple@L5
Format settings, BVOP : Yes
Format settings, QPel : No
Format settings, GMC : No warppoints
Format settings, Matrix : Default (H.263)
Codec ID : XVID
Codec ID/Hint : XviD
Duration : 2h 41mn
Bit rate : 709 Kbps
Width : 480 pixels
Height : 360 pixels
Display aspect ratio : 4/3
Frame rate : 25.000 fps
Resolution : 24 bits
Colorimetry : 4:2:0
Scan type : Progressive
Bits/(Pixel*Frame) : 0.164
Stream size : 817 MiB (78%)
Writing library : XviD 1.2.1 (UTC 2008-12-04)
Audio
ID : 1
Format : MPEG Audio
Format version : Version 1
Format profile : Layer 3
Codec ID : 55
Codec ID/Hint : MP3
Duration : 2h 41mn
Bit rate mode : Constant
Bit rate : 192 Kbps
Channel(s) : 2 channels
Sampling rate : 44.1 KHz
Resolution : 16 bits
Stream size : 221 MiB (21%)
Alignment : Split accross interleaves
Interleave, duration : 40 ms (1.00 video frame)
Interleave, preload duration : 500 ms
Скриншоты
Скачать

Скачать торрент! Утраченное и обретенное / Alag Alag (Шакти Саманта / Shakti Samanta) [1985, Индия, Мелодрама, LDRip] VO (Nastia)

Как скачивать? · Что такое торрент? · Рейтинг и ограничения

Сайт не распространяет и не хранит электронные версии произведений, а лишь предоставляет доступ к создаваемому пользователями каталогу ссылок на торрент-файлы, которые содержат только списки хеш-сумм

[Профиль] [ЛС]
Показать сообщения:    
Ответить на тему

Текущее время: Сегодня 12:41

Часовой пояс: GMT + 4



Вы не можете начинать темы
Вы не можете отвечать на сообщения
Вы не можете редактировать свои сообщения
Вы не можете удалять свои сообщения
Вы не можете голосовать в опросах
Вы не можете прикреплять файлы к сообщениям
Вы не можете скачивать файлы