Дед (Михаил Журавкин) [2011, драма, TVRip]

Ответить на тему
 
Автор Сообщение

user ®

Стаж: 7 лет 7 месяцев

Сообщений: 20008

Пост Пост: #1 от 18-Окт-2015 22:39

[Цитировать]

Дед Жанр: драма
Год выпуска: 2011
Продолжительность: 01:34:29
Режиссёр: Михаил Журавкин
Сценарий: Елена Зуева, Леонора Пащенко
Оператор: Олег Топоев
Композитор: Олесь Коровниченко
В ролях: Станислав Любшин, Ирина Линдт, Игорь Черневич, Дмитрий Суржиков, Иван Безбородов, Ваня Золотухин, Евгений Капорин, Сергей Сипливый, Алексей Кирсанов
Описание: Андрей Петрович Львов, ветеран Великой Отечественной, жил честно и по-справедливости. Так же он воспитывал свою дочь, внучку, а потом и правнука Андрюшу. Да так, что мальчишка, отправившись служить в армию, не смог смириться с произволом злобного и закомплексованного капитана Ефремова. В состоянии алкогольного безумия капитан застрелил парня - официальной же версией, стало неосторожное обращение с оружием. Правду старик узнал только через полгода от демобилизованного сослуживца правнука. А эта правда пересеклась с его собственной тайной… Тем не менее, старик взял свой наградной пистолет и поехал в гарнизонный городок восстанавливать справедливость…
Сэмпл: http://sendfile.su/1165851
:http://www.kinopoisk.ru/film/678685/
Качество видео: IPTVRip
Формат видео: AVI
Видео: XviD build 50, 720x384 (1.88:1), 25 fps, ~1929 kbps avg
Аудио: 48 kHz, MPEG Layer 3, 2 ch, ~192.00 kbps avg
MediaInfo
Общее
Полное имя : D:\TORRENTS\Дед (С.Любшин. 2011)_1,4.XviD\Дед.avi
Формат : AVI
Формат/Информация : Audio Video Interleave
Размер файла : 1,41 Гбайт
Продолжительность : 1 ч. 34 м.
Общий поток : 2131 Кбит/сек
Программа кодирования : VirtualDubModRus 1.5.10.2 (build 2540/release)
Библиотека кодирования : VirtualDubMod build 2540/release
Видео
Идентификатор : 0
Формат : MPEG-4 Visual
Профиль формата : Advanced Simple@L5
Параметр BVOP формата : 1
Параметр QPel формата : Нет
Параметр GMC формата : Без точки перехода
Параметр матрицы формата : Default (H.263)
Идентификатор кодека : XVID
Идентификатор кодека/Подсказка : XviD
Продолжительность : 1 ч. 34 м.
Битрейт : 1930 Кбит/сек
Ширина : 720 пикселей
Высота : 384 пикселя
Соотношение сторон : 1,85:1
Частота кадров : 25,000 кадров/сек
Цветовое пространство : YUV
Субдискретизация насыщенности : 4:2:0
Битовая глубина : 8 бит
Тип развёртки : Прогрессивная
Метод сжатия : С потерями
Бит/(Пиксели*Кадры) : 0.279
Размер потока : 1,27 Гбайт (91%)
Библиотека кодирования : XviD 1.2.1 (UTC 2008-12-04)
Аудио
Идентификатор : 1
Формат : MPEG Audio
Версия формата : Version 1
Профиль формата : Layer 3
Идентификатор кодека : 55
Идентификатор кодека/Подсказка : MP3
Продолжительность : 1 ч. 34 м.
Вид битрейта : Постоянный
Битрейт : 192 Кбит/сек
Каналы : 2 канала
Частота : 48,0 КГц
Метод сжатия : С потерями
Размер потока : 130 Мбайт (9%)
Выравнивание : Соединение по промежуткам
Продолжительность промежутка : 40 мс. (1,00 видеокадр)
Время предзагрузки промежутка : 504 мс.
Библиотека кодирования : LAME3.98r
Настройки программы : -m s -V 4 -q 2 -lowpass 18.6 -b 192
Скриншот c названием фильма Скриншоты
Скачать

Скачать торрент!

Как скачивать? · Что такое торрент? · Рейтинг и ограничения

Сайт не распространяет и не хранит электронные версии произведений, а лишь предоставляет доступ к создаваемому пользователями каталогу ссылок на торрент-файлы, которые содержат только списки хеш-сумм

[Профиль] [ЛС]
Показать сообщения:    
Ответить на тему

Текущее время: Сегодня 15:36

Часовой пояс: GMT + 4



Вы не можете начинать темы
Вы не можете отвечать на сообщения
Вы не можете редактировать свои сообщения
Вы не можете удалять свои сообщения
Вы не можете голосовать в опросах
Вы не можете прикреплять файлы к сообщениям
Вы не можете скачивать файлы