Паника в деревне / Panique au village (Стефани Обье / Stéphane Aubier, Венсан Патар / Vincent Patar) [2009, мультфильм, фэнтези, комедия, приключения, семейный, BDRip] AVO

Ответить на тему
 
Автор Сообщение

user ®

Стаж: 13 лет

Сообщений: 15041

Пост Пост: #1 от 18-Окт-2015 04:03

[Цитировать]

Паника в деревне / Panique au village
Страна: Бельгия, Люксембург, Франция
Жанр: мультфильм, фэнтези, комедия, приключения, семейный
Продолжительность: 01:16:53
Год выпуска: 2009
Перевод: Авторский (одноголосый закадровый) А. Матвеев
Cубтитры: (внешние, *srt): русские (timbrk), английские-Слоган «They came... They saw... They panicked...»-Режиссёр: Стефани Обье / Stéphane Aubier, Венсан Патар / Vincent Patar
Роли озвучивали: Стефани Обье, Жанна Балибар, Николя Бюиссе, Вероника Дюмон, Брюс Эллисон, Кристина Грюлуа, Фридерик Жаннен, Були Ланнерс, Брайан Лукке, Кристель Маи-Описание:
Приключения героев начинаются с благой идеи. Ковбой и Индеец решили подарить Лошади «вещь», сделанную своими руками. Идея оказалась не самой лучшей: нежданный подарок разрушил дом Лошади.
-
Качество: BDRip
Формат: AVI
Видео: 720x304 (2.37:1), 23.976 fps, XviD build 73 ~1839 kbps avg, 0.351 bit/pixel
Аудио №1: Русский: 48 kHz, AC3 Dolby Digital, 3/2 (L,C,R,l,r) + LFE ch, ~448.00 kbps avg [Авторский (одноголосый закадровый)]
Аудио №2: Английский: 48 kHz, AC3 Dolby Digital, 3/2 (L,C,R,l,r) + LFE ch, ~448.00 kbps avg [Оригинал]
Автор рипа: domin8
Подробные технические данные
General Complete name : D:\Panique au village\Panique au village\Panique_au_village_BDRip_AVO.avi Format : AVI Format/Info : Audio Video Interleave File size : 1.48 GiB Duration : 1h 16mn Overall bit rate : 2 749 Kbps Movie name : Panique au village [ripped by domin8] Genre : Child's Writing application : VirtualDubMod 1.5.10.3 | www.virtualdub-fr.org || (build 2550/release) Original source form/Name : Cartoon Video #0 ID : 0 Format : MPEG-4 Visual Format profile : Advanced Simple@L5 Format settings, BVOP : Yes Format settings, QPel : No Format settings, GMC : No warppoints Format settings, Matrix : Custom Codec ID : XVID Codec ID/Hint : XviD Duration : 1h 16mn Bit rate : 1 839 Kbps Width : 720 pixels Height : 304 pixels Display aspect ratio : 2.35:1 Frame rate : 23.976 fps Color space : YUV Chroma subsampling : 4:2:0 Bit depth : 8 bits Scan type : Progressive Bits/(Pixel*Frame) : 0.351 Stream size : 1 012 MiB (67%) Writing library : XviD 73 Audio #1 ID : 1 Format : AC-3 Format/Info : Audio Coding 3 Mode extension : CM (complete main) Codec ID : 2000 Duration : 1h 16mn Bit rate mode : Constant Bit rate : 448 Kbps Channel(s) : 6 channels Channel positions : Front: L C R, Side: L R, LFE Sampling rate : 48.0 KHz Bit depth : 16 bits Stream size : 246 MiB (16%) Alignment : Split accross interleaves Interleave, duration : 42 ms (1.00 video frame) Interleave, preload duration : 500 ms Title : Russian Audio #2 ID : 2 Format : AC-3 Format/Info : Audio Coding 3 Mode extension : CM (complete main) Codec ID : 2000 Duration : 1h 16mn Bit rate mode : Constant Bit rate : 448 Kbps Channel(s) : 6 channels Channel positions : Front: L C R, Side: L R, LFE Sampling rate : 48.0 KHz Bit depth : 16 bits Stream size : 246 MiB (16%) Alignment : Split accross interleaves Interleave, duration : 42 ms (1.00 video frame) Interleave, preload duration : 500 ms Title : French
Скриншоты
Скачать

Скачать торрент! Паника в деревне / Panique au village (Стефани Обье / Stéphane Aubier, Венсан Патар / Vincent Patar) [2009, мультфильм, фэнтези, комедия, приключения, семейный, BDRip] AVO

Как скачивать? · Что такое торрент? · Рейтинг и ограничения

Сайт не распространяет и не хранит электронные версии произведений, а лишь предоставляет доступ к создаваемому пользователями каталогу ссылок на торрент-файлы, которые содержат только списки хеш-сумм

[Профиль] [ЛС]
Показать сообщения:    
Ответить на тему

Текущее время: Сегодня 18:55

Часовой пояс: GMT + 4



Вы не можете начинать темы
Вы не можете отвечать на сообщения
Вы не можете редактировать свои сообщения
Вы не можете удалять свои сообщения
Вы не можете голосовать в опросах
Вы не можете прикреплять файлы к сообщениям
Вы не можете скачивать файлы