Паника в деревне / Panique au village (Стефани Обье / Stéphane Aubier, Венсан Патар / Vincent Patar) [2009, мультфильм, фэнтези, комедия, приключения, семейный, BDRip] AVO

Ответить на тему
 
Автор Сообщение

user ®

Стаж: 12 лет

Сообщений: 15145

Пост Пост: #1 от 18-Окт-2015 04:03

[Цитировать]

Паника в деревне / Panique au village
Страна: Бельгия, Люксембург, Франция
Жанр: мультфильм, фэнтези, комедия, приключения, семейный
Продолжительность: 01:16:53
Год выпуска: 2009
Перевод: Авторский (одноголосый закадровый) А. Матвеев
Cубтитры: отсутствуют-Слоган «They came... They saw... They panicked...»-Режиссёр: Стефани Обье / Stéphane Aubier, Венсан Патар / Vincent Patar
Роли озвучивали: Стефани Обье, Жанна Балибар, Николя Бюиссе, Вероника Дюмон, Брюс Эллисон, Кристина Грюлуа, Фридерик Жаннен, Були Ланнерс, Брайан Лукке, Кристель Маи-Описание:
Приключения героев начинаются с благой идеи. Ковбой и Индеец решили подарить Лошади «вещь», сделанную своими руками. Идея оказалась не самой лучшей: нежданный подарок разрушил дом Лошади.
-
Качество: BDRip
Формат: AVI
Видео: 640x272 (2.35:1), 23.976 fps, XviD build 73 ~1217 kbps avg, 0.292 bit/pixel
Аудио: 48 kHz, MPEG Layer 3, 2 ch, ~128.00 kbps avg
Автор рипа: domin8
Подробные технические данные
General Complete name : D:\Panique au village\02\Panique_au_village_BDRip_AVO.avi Format : AVI Format/Info : Audio Video Interleave File size : 745 MiB Duration : 1h 16mn Overall bit rate : 1 354 Kbps Movie name : Panique au village [ripped by domin8] Genre : Child's Writing application : VirtualDubMod 1.5.10.3 | www.virtualdub-fr.org || (build 2550/release) Original source form/Name : Cartoon Video #0 ID : 0 Format : MPEG-4 Visual Format profile : Advanced Simple@L5 Format settings, BVOP : Yes Format settings, QPel : No Format settings, GMC : No warppoints Format settings, Matrix : Default (H.263) Codec ID : XVID Codec ID/Hint : XviD Duration : 1h 16mn Bit rate : 1 217 Kbps Width : 640 pixels Height : 272 pixels Display aspect ratio : 2.35:1 Frame rate : 23.976 fps Color space : YUV Chroma subsampling : 4:2:0 Bit depth : 8 bits Scan type : Progressive Bits/(Pixel*Frame) : 0.292 Stream size : 669 MiB (90%) Writing library : XviD 73 Audio #1 ID : 1 Format : MPEG Audio Format version : Version 1 Format profile : Layer 3 Mode : Joint stereo Codec ID : 55 Codec ID/Hint : MP3 Duration : 1h 16mn Bit rate mode : Constant Bit rate : 128 Kbps Channel(s) : 2 channels Sampling rate : 48.0 KHz Stream size : 70.4 MiB (9%) Alignment : Aligned on interleaves Interleave, duration : 42 ms (1.00 video frame) Interleave, preload duration : 504 ms Writing library : LAME3.99r Encoding settings : -m j -V 4 -q 0 -lowpass 17 -b 128
Скриншоты
Скачать

Скачать торрент! Паника в деревне / Panique au village (Стефани Обье / Stéphane Aubier, Венсан Патар / Vincent Patar) [2009, мультфильм, фэнтези, комедия, приключения, семейный, BDRip] AVO

Как скачивать? · Что такое торрент? · Рейтинг и ограничения

Сайт не распространяет и не хранит электронные версии произведений, а лишь предоставляет доступ к создаваемому пользователями каталогу ссылок на торрент-файлы, которые содержат только списки хеш-сумм

[Профиль] [ЛС]
Показать сообщения:    
Ответить на тему

Текущее время: Сегодня 21:02

Часовой пояс: GMT + 4



Вы не можете начинать темы
Вы не можете отвечать на сообщения
Вы не можете редактировать свои сообщения
Вы не можете удалять свои сообщения
Вы не можете голосовать в опросах
Вы не можете прикреплять файлы к сообщениям
Вы не можете скачивать файлы