Хранитель луны / Mune, le gardien de la lune (Александр Эбоян / Alexandre Heboyan, Бенуа Филиппон / Benoît Philippon) [2014, Мультфильм, WEB-DLRip] Dub

Ответить на тему
 
Автор Сообщение

user ®

Стаж: 12 лет

Сообщений: 15145

Пост Пост: #1 от 16-Окт-2015 14:57

[Цитировать]

Хранитель луны / Mune, le gardien de la lune
Страна: Франция
Жанр: Мультфильм
Продолжительность: 01:21:14
Год выпуска: 2014
Перевод: Профессиональный (дублированный)
Русские субтитры: нет
Режиссёр: Александр Эбоян / Alexandre Heboyan, Бенуа Филиппон / Benoît Philippon
Роли озвучивали: Омар Си, Изиа Ижлен, Майкл Грегорио, Шафик Ахмад, Бенуа Аллемане, Шеннон Арчи, Федор Аткин, Джошуа Дж. Баллард, Дэмиен Буассо, Эммануэль Кюртиль
Описание: Существует невероятная и неповторимая планета, где живут различные существа. Ещё одна уникальность того места, там день и ночь регулируются вручную. На всеобщем собрании по какой то причине молодого фавна Мьюна высшие силы выбирают хранителем Луны. А сильного и отважного Сохона - хранителем Солнца. Но по своей неопытности Мьюн теряет Луну. Воспользовавшись таким удачным случаем, владыка подземелья Некрос тушит Солнце. Теперь новые друзья: девочка из воска Глим, Мьюн и Сохон, отправляются в дальнее и полное различных испытаний путешествие, чтоб спасти свою планету от вымирания.
Семпл: http://multi-up.com/1071511
Качество: WEB-DLRip
Формат: AVI
Видео: 720x304 (2.37:1), 25 fps, XviD build 50 ~1064 kbps avg, 0.30 bit/pixel
Аудио: 48 kHz, AC3, 2/0 (L,R) ch, ~128 kbps
Субтитры: отсутствуют
Подробные технические данные
C:\Users\andreas\Downloads\XrAn1te1i.Lun1.2014.D.WEB-DLRip.700MB.avi General Complete name : C:\Users\andreas\Downloads\XrAn1te1i.Lun1.2014.D.WEB-DLRip.700MB.avi Format : AVI Format/Info : Audio Video Interleave File size : 700 MiB Duration : 1h 21mn Overall bit rate : 1 202 Kbps Writing application : VirtualDubMod 1.5.10.3 | www.virtualdub-fr.org || (build 2550/release) Writing library : VirtualDubMod build 2550/release Video #0 ID : 0 Format : MPEG-4 Visual Format profile : Advanced Simple@L5 Format settings, BVOP : 2 Format settings, QPel : No Format settings, GMC : No warppoints Format settings, Matrix : Default (MPEG) Codec ID : XVID Codec ID/Hint : XviD Duration : 1h 21mn Bit rate : 1 064 Kbps Width : 720 pixels Height : 304 pixels Display aspect ratio : 2.35:1 Frame rate : 25.000 fps Color space : YUV Chroma subsampling : 4:2:0 Bit depth : 8 bits Scan type : Progressive Compression mode : Lossy Bits/(Pixel*Frame) : 0.194 Stream size : 620 MiB (89%) Writing library : XviD 1.2.1 (UTC 2008-12-04) Audio #1 ID : 1 Format : MPEG Audio Format version : Version 1 Format profile : Layer 3 Mode : Joint stereo Codec ID : 55 Codec ID/Hint : MP3 Duration : 1h 21mn Bit rate mode : Constant Bit rate : 128 Kbps Channel(s) : 2 channels Sampling rate : 48.0 KHz Compression mode : Lossy Stream size : 74.6 MiB (11%) Alignment : Aligned on interleaves Interleave, duration : 40 ms (1.00 video frame) Interleave, preload duration : 504 ms Writing library : LAME3.99r Encoding settings : -m j -V 4 -q 2 -lowpass 17 -b 128
Скриншоты
Скачать

Скачать торрент! Хранитель луны / Mune, le gardien de la lune (Александр Эбоян / Alexandre Heboyan, Бенуа Филиппон / Benoît Philippon) [2014, Мультфильм, WEB-DLRip] Dub

Как скачивать? · Что такое торрент? · Рейтинг и ограничения

Сайт не распространяет и не хранит электронные версии произведений, а лишь предоставляет доступ к создаваемому пользователями каталогу ссылок на торрент-файлы, которые содержат только списки хеш-сумм

[Профиль] [ЛС]
Показать сообщения:    
Ответить на тему

Текущее время: Сегодня 20:43

Часовой пояс: GMT + 4



Вы не можете начинать темы
Вы не можете отвечать на сообщения
Вы не можете редактировать свои сообщения
Вы не можете удалять свои сообщения
Вы не можете голосовать в опросах
Вы не можете прикреплять файлы к сообщениям
Вы не можете скачивать файлы