Азазель / Азаzель (Александр Адабашьян) [2002 г., Детектив, SATRip]

Ответить на тему
 
Автор Сообщение

user ®

Стаж: 7 лет 7 месяцев

Сообщений: 20008

Пост Пост: #1 от 16-Окт-2015 08:48

[Цитировать]

Азазель / Азаzель (4 серии) Год выпуска: 2002.
Жанр: Детектив
Продолжительность: 00:46:22 + 00:50:23 + 00:50:37 + 00:51:27
(4 серии)
Режиссер: Александр Адабашьян.
В ролях:
Илья Носков — Эраст Петрович Фандорин,
Сергей Безруков — Иван Францевич Бриллинг,
Марина Александрова — Елизавета фон Эверт-Колокольцева,
Олег Басилашвили — генерал Мизинов,
Сергей Чонишвили — Ипполит Александрович Зуров,
Марина Неёлова — леди Эстер,
Юрий Авшаров — Георг,
Феликс Антипов — Грушин,
Лариса Борушко — Амалия Казимировна Бежецкая,
Дмитрий Бурханкин — Кокорин,
Валентин Голубенко - Клаус,
Евгений Гришковец — Ахимас,
Василий Куприянов - Эверт-Колокольцев,
Иван Моховиков - фельдегерь,
Александр Орловский - Канингем,
Кирилл Пирогов — студент Николай Степанович Ахтырцев,
Александр Пожаров - кондуктор,
Эва Шикульска - фрейлен Пфуль,
Валентин Самохин — студент Ишимов,
Игорь Письменный - портье,
Вячеслав Жолобов - Белозеров,
Юрий Нифонтов - Пыжов,
Любовь Руднева - Аграфена Кондратьевна,
Сергей Фролов - привратник в университете,
Александр Адабашьян (эпизод).

Описание:
Молодой чиновник сыскного ведомства Эраст Фандорин берётся за расследование загадочного самоубийства.
Он знакомится с другом самоубийцы студентом Ахтырцевым, но едва в его руки попадают первые нити к расследованию преступления, как совершается попытка его убийства.
Фандорин выходит на след таинственной организации "Азазель"…

Доп. информация:
Страна: Россия .
Киностудия: Три Тэ.
Сценарий: Бориса Акунина, по одноименному роману.
Оператор: Павел Лебешев.
Композитор: Владимир Дашкевич.
Премьера: 10 марта 2002 года.

ЗНАЕТЕ ЛИ ВЫ, ЧТО...
Слово «азазель» в переводе с иврита означает «чёрт» — в контексте данного фильма — «оборотень». Азазель — имя одного из падших ангелов, упомянутых в Книге Еноха. Азазель научил женщин использованию косметики, а мужчин — созданию оружия.
Релиз.....
Рип морячок.
Огромное спасибо
gaidai82 за предоставленный материал.


Качество: SATRip
Формат: AVI
Видео: 640x384 (1.67:1), 25 fps, XviD build 46 ~1849 kbps avg, 0.30 bit/pixel (парамеры видео одинаковы во всех сериях)
Аудио: 48 kHz, MPEG Layer 3, 2 ch, ~128.00 kbps avg
Отчет Media Info
1-я серия
Общее
Полное имя : Azazel.(4.serii.iz.4).2002.XviD.SATRip.fenixclub\Azazel(1-ja.serija.iz.4).2002.XviD.SATRip.fenixclub.avi
Format : AVI
Format/Info : Audio Video Interleave
File size : 659 MiB
Duration : 46mn 22s
Overall bit rate : 1 986 Kbps
Writing application : VirtualDubMod 1.5.10.2 (build 2540/release)
Writing library : VirtualDubMod build 2540/release
Copyright : SATrip by moryachok
Video
ID : 0
Format : MPEG-4 Visual
Format profile : Advanced Simple@L5
Format settings, BVOP : 8
Format settings, QPel : No
Format settings, GMC : No warppoints
Format settings, Matrix : Default (MPEG)
Codec ID : XVID
Codec ID/Hint : XviD
Duration : 46mn 22s
Bit rate : 1 848 Kbps
Width : 640 pixels
Height : 384 pixels
Display aspect ratio : 5:4
Original display aspect rat : 5:3
Frame rate : 25.000 fps
Color space : YUV
Chroma subsampling : 4:2:0
Bit depth : 8 bits
Scan type : Progressive
Compression mode : Lossy
Bits/(Pixel*Frame) : 0.301
Stream size : 613 MiB (93%)
Writing library : XviD 1.1.2 (UTC 2006-11-01)
Audio
ID : 1
Format : MPEG Audio
Format version : Version 1
Format profile : Layer 3
Mode : Joint stereo
Mode extension : MS Stereo
Codec ID : 55
Codec ID/Hint : MP3
Duration : 46mn 21s
Bit rate mode : Constant
Bit rate : 128 Kbps
Channel(s) : 2 channels
Sampling rate : 48.0 KHz
Compression mode : Lossy
Stream size : 42.4 MiB (6%)
Alignment : Aligned on interleaves
Interleave, duration : 40 ms (1.00 video frame)
Interleave, preload duratio : 504 ms
2-я серия
Общее
Полное имя : Azazel.(4.serii.iz.4).2002.XviD.SATRip.fenixclub\Azazel(2-ja.serija.iz.4).2002.XviD.SATRip.fenixclub.avi
Format : AVI
Format/Info : Audio Video Interleave
File size : 716 MiB
Duration : 50mn 23s
Overall bit rate : 1 986 Kbps
Writing application : VirtualDubMod 1.5.10.2 (build 2540/release)
Writing library : VirtualDubMod build 2540/release
Copyright : SATrip by moryachok
Video
ID : 0
Format : MPEG-4 Visual
Format profile : Advanced Simple@L5
Format settings, BVOP : 3
Format settings, QPel : No
Format settings, GMC : No warppoints
Format settings, Matrix : Default (MPEG)
Codec ID : XVID
Codec ID/Hint : XviD
Duration : 50mn 23s
Bit rate : 1 848 Kbps
Width : 640 pixels
Height : 384 pixels
Display aspect ratio : 5:4
Original display aspect rat : 5:3
Frame rate : 25.000 fps
Color space : YUV
Chroma subsampling : 4:2:0
Bit depth : 8 bits
Scan type : Progressive
Compression mode : Lossy
Bits/(Pixel*Frame) : 0.301
Stream size : 666 MiB (93%)
Writing library : XviD 1.1.2 (UTC 2006-11-01)
Audio
ID : 1
Format : MPEG Audio
Format version : Version 1
Format profile : Layer 3
Mode : Joint stereo
Mode extension : MS Stereo
Codec ID : 55
Codec ID/Hint : MP3
Duration : 50mn 23s
Bit rate mode : Constant
Bit rate : 128 Kbps
Channel(s) : 2 channels
Sampling rate : 48.0 KHz
Compression mode : Lossy
Stream size : 46.1 MiB (6%)
Alignment : Aligned on interleaves
Interleave, duration : 40 ms (1.00 video frame)
Interleave, preload duratio : 504 ms
3-я серия
Общее
Полное имя : Azazel.(4.serii.iz.4).2002.XviD.SATRip.fenixclub\Azazel(3-ja.serija.iz.4).2002.XviD.SATRip.fenixclub.avi
Format : AVI
Format/Info : Audio Video Interleave
File size : 719 MiB
Duration : 50mn 37s
Overall bit rate : 1 987 Kbps
Writing application : VirtualDubMod 1.5.10.2 (build 2540/release)
Writing library : VirtualDubMod build 2540/release
Copyright : SATrip by moryachok
Video
ID : 0
Format : MPEG-4 Visual
Format profile : Advanced Simple@L5
Format settings, BVOP : 3
Format settings, QPel : No
Format settings, GMC : No warppoints
Format settings, Matrix : Default (MPEG)
Codec ID : XVID
Codec ID/Hint : XviD
Duration : 50mn 37s
Bit rate : 1 849 Kbps
Width : 640 pixels
Height : 384 pixels
Display aspect ratio : 5:4
Original display aspect rat : 5:3
Frame rate : 25.000 fps
Color space : YUV
Chroma subsampling : 4:2:0
Bit depth : 8 bits
Scan type : Progressive
Compression mode : Lossy
Bits/(Pixel*Frame) : 0.301
Stream size : 670 MiB (93%)
Writing library : XviD 1.1.2 (UTC 2006-11-01)
Audio
ID : 1
Format : MPEG Audio
Format version : Version 1
Format profile : Layer 3
Mode : Joint stereo
Mode extension : MS Stereo
Codec ID : 55
Codec ID/Hint : MP3
Duration : 50mn 37s
Bit rate mode : Constant
Bit rate : 128 Kbps
Channel(s) : 2 channels
Sampling rate : 48.0 KHz
Compression mode : Lossy
Stream size : 46.4 MiB (6%)
Alignment : Aligned on interleaves
Interleave, duration : 40 ms (1.00 video frame)
Interleave, preload duratio : 504 ms
4-я серия
Общее
Полное имя : Azazel.(4.serii.iz.4).2002.XviD.SATRip.fenixclub\Azazel(4-ja.serija.iz.4).2002.XviD.SATRip.fenixclub.avi
Format : AVI
Format/Info : Audio Video Interleave
File size : 731 MiB
Duration : 51mn 27s
Overall bit rate : 1 987 Kbps
Writing application : VirtualDubMod 1.5.10.2 (build 2540/release)
Writing library : VirtualDubMod build 2540/release
Copyright : SATrip by moryachok
Video
ID : 0
Format : MPEG-4 Visual
Format profile : Advanced Simple@L5
Format settings, BVOP : 3
Format settings, QPel : No
Format settings, GMC : No warppoints
Format settings, Matrix : Default (MPEG)
Codec ID : XVID
Codec ID/Hint : XviD
Duration : 51mn 27s
Bit rate : 1 849 Kbps
Width : 640 pixels
Height : 384 pixels
Display aspect ratio : 5:4
Original display aspect rat : 5:3
Frame rate : 25.000 fps
Color space : YUV
Chroma subsampling : 4:2:0
Bit depth : 8 bits
Scan type : Progressive
Compression mode : Lossy
Bits/(Pixel*Frame) : 0.301
Stream size : 681 MiB (93%)
Writing library : XviD 1.1.2 (UTC 2006-11-01)
Audio
ID : 1
Format : MPEG Audio
Format version : Version 1
Format profile : Layer 3
Mode : Joint stereo
Mode extension : MS Stereo
Codec ID : 55
Codec ID/Hint : MP3
Duration : 51mn 27s
Bit rate mode : Constant
Bit rate : 128 Kbps
Channel(s) : 2 channels
Sampling rate : 48.0 KHz
Compression mode : Lossy
Stream size : 47.1 MiB (6%)
Alignment : Aligned on interleaves
Interleave, duration : 40 ms (1.00 video frame)
Interleave, preload duratio : 504 ms
Скриншоты
Альтернативный хост
Скачать

Скачать торрент!

Как скачивать? · Что такое торрент? · Рейтинг и ограничения

Сайт не распространяет и не хранит электронные версии произведений, а лишь предоставляет доступ к создаваемому пользователями каталогу ссылок на торрент-файлы, которые содержат только списки хеш-сумм

[Профиль] [ЛС]
Показать сообщения:    
Ответить на тему

Текущее время: Сегодня 22:16

Часовой пояс: GMT + 4



Вы не можете начинать темы
Вы не можете отвечать на сообщения
Вы не можете редактировать свои сообщения
Вы не можете удалять свои сообщения
Вы не можете голосовать в опросах
Вы не можете прикреплять файлы к сообщениям
Вы не можете скачивать файлы