Дрожь земли 5: Кровное родство / Tremors 5: Bloodlines (Дон Майкл Пол / Don Michael Paul) [2015, США, ужасы, фантастика, боевик, BDRip-AVC] MVO

Ответить на тему
 
Автор Сообщение

user ®

Стаж: 7 лет 7 месяцев

Сообщений: 20008

Пост Пост: #1 от 16-Окт-2015 02:39

[Цитировать]

Дрожь земли 5: Кровное родство
Tremors 5: Bloodlines


Страна: США
Жанр: ужасы, фантастика, боевик
Год выпуска: 2015
Продолжительность: 01:39:02
Перевод: Любительский (многоголосый, закадровый)
Cубтитры: нет
Оригинальная аудиодорожка: нет
Режиссер: Дон Майкл Пол / Don Michael Paul
В ролях: Майкл Гросс, Джейми Кеннеди, Эрнест Ндлову, Лоуренс Джофф, Зак Хендрикз, Натали Бекер, Эммануэль Кастис, Брэндон Оре, Дэниэл Дженкс, Rea Rangaka, Йен Робертс, Селло Себотсейн
Описание:
Гигантские черви-людоеды, известные как Грабоиды, терроризируют жителей Южной Африки. И самое страшное - это то, что Грабоиды со временем превратились в еще более опасных тварей...

Релиз:
Автор рипа: Stalker oK
Сэмпл
Качество видео: BDRip-AVC [Blu-ray Remux 1080p кинозал]
Формат видео: MKV
Видео кодек: AVC
Аудио кодек: AC3
Видео: 1651 Кбит/сек, 832x468 (16:9), 23,976 кадр/сек, AVC
Аудио: русский, 448 Кбит/сек, 48 КГц, 16 бит, 5.1, AC3
Навигация по главам: есть

Перевод/Озвучка
Состав дикторов: Райм, Баира, datynet, mazehacka, Андрей Циклис, Азат Саетов, Андрей Зверев
Фильм переведен: Anastassia Belle
Звукорежиссёр: Ar_Dva
MediaInfo
General
Unique ID : 204808077407959338353842945193808902789 (0x9A1499D5732BB6C9A6B951F2013E3A85)
Complete name : N:\Rips\Tremors 5 Bloodlines\Tremors.5.Bloodlines.2015.BDRip-AVC.MVO.1.45Gb...stalkerok.new-team.mkv
Format : Matroska
File size : 1.45 GiB
Duration : 1h 39mn
Overall bit rate : 2 100 Kbps
Movie name : Tremors 5: Bloodlines (2015) (New-Team) (Rip by Stalker oK)
Encoded date : UTC 2015-10-15 14:27:34
Writing application : mkvmerge v7.9.0 ('Birds') 64bit
Writing library : libebml v1.3.1 + libmatroska v1.4.2
Video
ID : 1
Format : AVC
Format/Info : Advanced Video Codec
Format profile : High@L4.1
Format settings, CABAC : Yes
Format settings, ReFrames : 12 frames
Codec ID : V_MPEG4/ISO/AVC
Duration : 1h 39mn
Bit rate : 1 651 Kbps
Width : 832 pixels
Height : 468 pixels
Display aspect ratio : 16:9
Frame rate : 23.976 fps
Color space : YUV
Chroma subsampling : 4:2:0
Bit depth : 8 bits
Scan type : Progressive
Bits/(Pixel*Frame) : 0.177
Stream size : 1.11 GiB (77%)
Writing library : x264 core 146 r2538kMod 121396c
Encoding settings : cabac=1 / ref=12 / deblock=1:-3:-3 / analyse=0x3:0x133 / me=umh / subme=11 / psy=1 / fade_compensate=0.00 / psy_rd=1.00:0.12 / mixed_ref=1 / me_range=48 / chroma_me=1 / trellis=2 / 8x8dct=1 / cqm=0 / deadzone=21,11 / fast_pskip=0 / chroma_qp_offset=-3 / threads=12 / lookahead_threads=3 / sliced_threads=0 / nr=0 / decimate=0 / interlaced=0 / bluray_compat=0 / constrained_intra=0 / fgo=0 / bframes=14 / b_pyramid=2 / b_adapt=2 / b_bias=0 / direct=3 / weightb=1 / open_gop=0 / weightp=2 / keyint=240 / keyint_min=23 / scenecut=40 / intra_refresh=0 / rc_lookahead=60 / rc=2pass / mbtree=0 / bitrate=1651 / ratetol=1.0 / qcomp=0.70 / qpmin=0 / qpmax=69 / qpstep=4 / cplxblur=20.0 / qblur=0.5 / vbv_maxrate=50000 / vbv_bufsize=62500 / nal_hrd=none / filler=0 / ip_ratio=1.40 / pb_ratio=1.30 / aq=3:0.92
Language : English
Audio
ID : 2
Format : AC-3
Format/Info : Audio Coding 3
Mode extension : CM (complete main)
Codec ID : A_AC3
Duration : 1h 39mn
Bit rate mode : Constant
Bit rate : 448 Kbps
Channel(s) : 6 channels
Channel positions : Front: L C R, Side: L R, LFE
Sampling rate : 48.0 KHz
Bit depth : 16 bits
Compression mode : Lossy
Stream size : 317 MiB (21%)
Language : Russian
Menu
00:00:00.000 : en:00:00:00.000
00:06:52.537 : en:00:06:52.537
00:12:43.179 : en:00:12:43.179
00:17:19.247 : en:00:17:19.247
00:21:48.724 : en:00:21:48.724
00:26:34.426 : en:00:26:34.426
00:31:01.777 : en:00:31:01.777
00:36:38.905 : en:00:36:38.905
00:39:13.309 : en:00:39:13.309
00:46:36.919 : en:00:46:36.919
00:52:46.038 : en:00:52:46.038
00:58:57.534 : en:00:58:57.534
01:04:00.587 : en:01:04:00.587
01:08:57.967 : en:01:08:57.967
01:13:14.974 : en:01:13:14.974
01:16:14.445 : en:01:16:14.445
01:21:47.027 : en:01:21:47.027
01:27:58.857 : en:01:27:58.857
01:31:51.756 : en:01:31:51.756
01:34:11.729 : en:01:34:11.729
Скриншоты
Скачать

Скачать торрент!

Как скачивать? · Что такое торрент? · Рейтинг и ограничения

Сайт не распространяет и не хранит электронные версии произведений, а лишь предоставляет доступ к создаваемому пользователями каталогу ссылок на торрент-файлы, которые содержат только списки хеш-сумм

[Профиль] [ЛС]
Показать сообщения:    
Ответить на тему

Текущее время: Сегодня 18:34

Часовой пояс: GMT + 4



Вы не можете начинать темы
Вы не можете отвечать на сообщения
Вы не можете редактировать свои сообщения
Вы не можете удалять свои сообщения
Вы не можете голосовать в опросах
Вы не можете прикреплять файлы к сообщениям
Вы не можете скачивать файлы