Безумный Макс: Дорога ярости / Mad Max: Fury Road (Джордж Миллер / George Miller) [2015, Австралия, США, Футуристическая драма, фантастика, приключения, WEB-DLRip] AVO (А. Гаврилов)

Ответить на тему
 
Автор Сообщение

user ®

Стаж: 7 лет 7 месяцев

Сообщений: 20008

Пост Пост: #1 от 15-Окт-2015 23:33

[Цитировать]

Безумный Макс: Дорога ярости / Mad Max: Fury Road
Страна: Австралия, США
Жанр: Футуристическая драма, фантастика, приключения
Год выпуска: 2015
Продолжительность: 02:00:21
Перевод: Авторский (одноголосый закадровый) А. Гаврилов
Cубтитры: отсутствуют
Оригинальная аудиодорожка: нет
Режиссер: Джордж Миллер / George Miller
В ролях: Том Харди, Шарлиз Терон, Зои Кравец, Николас Холт, Рози Хантингтон-Уайтели, Райли Кеох, Натан Джоунс, Меган Гэйл, Джош Хелман, Хью Кийс-Байрн, Энгус Сэмпсон, Ричард Нортон и др.
Описание: Сюжет в новом фильме про Макса довольно прост и незамысловат... Мы в очередной раз будем наблюдать за судьбой главного героя в мире охваченном безумием, уничтоженном и превращённом в безжизненную пустыню... На дороге, дороге ярости, перед Максом появился новый злодей. Точнее сказать, в новых реалиях окружающей действительности сложившихся в мире, появился новый тиран. Тиран возвёл себя в ранг божества и возглавил армию мракобесных фанатиков, заветная мечта любого из них - умереть во славу своего бога...

Качество видео: [url=http://***/forum/viewtopic.php?t=5019626]WEB-DLRip[/url]
Формат видео: AVI
Video: 688x288 (2.39:1), 23.976 fps, XviD build 73 ~728 kbps avg, 0.15 bit/pixel
Audio: 48 kHz, MPEG Layer 3, 2 ch, ~128.00 kbps avg
MediaInfo
ОбщееПолное имя : S:\Mad_Max_Fury_Road_2015_WEB-DLRip_[***].aviФормат : AVIФормат/Информация : Audio Video InterleaveРазмер файла : 745 МбайтПродолжительность : 2 ч. 0 м.Общий поток : 866 Кбит/секПрограмма кодирования : VirtualDubModRus 1.5.10.2 (build 2542/release)Библиотека кодирования : VirtualDubMod build 2542/release
ВидеоИдентификатор : 0Формат : MPEG-4 VisualПрофиль формата : Advanced Simple@L5Параметр BVOP формата : 1Параметр QPel формата : НетПараметр GMC формата : Без точки переходаПараметр матрицы формата : ВыборочнаяИдентификатор кодека : DX50Идентификатор кодека/Подсказка : DivX 5Продолжительность : 2 ч. 0 м.Битрейт : 728 Кбит/секШирина : 688 пикселейВысота : 288 пикселейСоотношение сторон : 2,40:1Частота кадров : 23,976 кадра/секЦветовое пространство : YUVСубдискретизация насыщенности : 4:2:0Битовая глубина : 8 битТип развёртки : ПрогрессивнаяМетод сжатия : С потерямиБит/(Пиксели*Кадры) : 0.153Размер потока : 627 Мбайт (84%)Библиотека кодирования : XviD 73
АудиоИдентификатор : 1Формат : MPEG AudioВерсия формата : Version 1Профиль формата : Layer 3Режим : Joint stereoРасширение режима : MS StereoИдентификатор кодека : 55Идентификатор кодека/Подсказка : MP3Продолжительность : 2 ч. 0 м.Вид битрейта : ПостоянныйБитрейт : 128 Кбит/секКаналы : 2 каналаЧастота : 48,0 КГцМетод сжатия : С потерямиРазмер потока : 110 Мбайт (15%)Выравнивание : Соединение по промежуткамПродолжительность промежутка : 42 мс. (1,00 видеокадр)Время предзагрузки промежутка : 504 мс.Библиотека кодирования : LAMELAME
Скриншот c названием фильма Скриншоты Время раздачи - по возможности.
Скачать

Скачать торрент!

Как скачивать? · Что такое торрент? · Рейтинг и ограничения

Сайт не распространяет и не хранит электронные версии произведений, а лишь предоставляет доступ к создаваемому пользователями каталогу ссылок на торрент-файлы, которые содержат только списки хеш-сумм

[Профиль] [ЛС]
Показать сообщения:    
Ответить на тему

Текущее время: Сегодня 14:45

Часовой пояс: GMT + 4



Вы не можете начинать темы
Вы не можете отвечать на сообщения
Вы не можете редактировать свои сообщения
Вы не можете удалять свои сообщения
Вы не можете голосовать в опросах
Вы не можете прикреплять файлы к сообщениям
Вы не можете скачивать файлы