Дрожь земли 5: Кровное родство / Tremors 5: Bloodlines (Дон Майкл Пол / Don Michael Paul) [2015, США, ужасы, фантастика, боевик, HDRip] MVO (GreenРай Studio)

Ответить на тему
 
Автор Сообщение

user ®

Стаж: 8 лет 2 месяца

Сообщений: 20008

Пост Пост: #1 от 15-Окт-2015 05:00

[Цитировать]

Дрожь земли 5: Кровное родство / Tremors 5: Bloodlines
Страна: США
Жанр: ужасы, фантастика, боевик
Год выпуска: 2015
Продолжительность: 01:39:02
Перевод: Любительский (многоголосый закадровый) GreenРай Studio
Cубтитры: нет
Режиссер: Дон Майкл Пол / Don Michael Paul
В ролях: Майкл Гросс, Джейми Кеннеди, Эрнест Ндлову, Лоуренс Джофф, Зак Хендрикз, Натали Бекер, Эммануэль Кастис, Брэндон Оре, Дэниэл Дженкс, Джаррод Пинто...
Описание: Гигантские черви-людоеды, известные как Грабоиды, терроризируют жителей Южной Африки. И самое страшное — это то, что Грабоиды со временем превратились в еще более опасных тварей…



Качество видео: HDRip
Формат видео: AVI
Видео: 720x400 (1.80:1), 23.976 fps, XviD MPEG-4 ~1528 kbps avg, 0.22 bit/pixel
Аудио: 48 kHz, AC3 Dolby Digital, 3/2 (L,C,R,l,r) + LFE ch, ~448 kbps

MediaInfo
Format : AVI
Format/Info : Audio Video Interleave
File size : 1.37 GiB
Duration : 1h 39mn
Overall bit rate : 1 986 Kbps
Writing library : VirtualDub build 34753/release
Video
ID : 0
Format : MPEG-4 Visual
Format profile : Advanced Simple@L5
Format settings, BVOP : 2
Format settings, QPel : No
Format settings, GMC : No warppoints
Format settings, Matrix : Default (H.263)
Muxing mode : Packed bitstream
Codec ID : XVID
Codec ID/Hint : XviD
Duration : 1h 39mn
Bit rate : 1 529 Kbps
Width : 720 pixels
Height : 400 pixels
Display aspect ratio : 16:9
Frame rate : 23.976 fps
Color space : YUV
Chroma subsampling : 4:2:0
Bit depth : 8 bits
Scan type : Progressive
Compression mode : Lossy
Bits/(Pixel*Frame) : 0.221
Stream size : 1.06 GiB (77%)
Writing library : XviD 66
Audio
ID : 1
Format : AC-3
Format/Info : Audio Coding 3
Mode extension : CM (complete main)
Format settings, Endianness : Big
Codec ID : 2000
Duration : 1h 39mn
Bit rate mode : Constant
Bit rate : 448 Kbps
Channel(s) : 6 channels
Channel positions : Front: L C R, Side: L R, LFE
Sampling rate : 48.0 KHz
Bit depth : 16 bits
Compression mode : Lossy
Stream size : 317 MiB (23%)
Alignment : Aligned on interleaves
Interleave, duration : 42 ms (1.00 video frame)
Interleave, preload duration : 512 ms
Скриншот c названием фильма Скриншоты
Скачать

Скачать торрент!

Как скачивать? · Что такое торрент? · Рейтинг и ограничения

Сайт не распространяет и не хранит электронные версии произведений, а лишь предоставляет доступ к создаваемому пользователями каталогу ссылок на торрент-файлы, которые содержат только списки хеш-сумм

[Профиль] [ЛС]
Показать сообщения:    
Ответить на тему

Текущее время: Сегодня 05:31

Часовой пояс: GMT + 4



Вы не можете начинать темы
Вы не можете отвечать на сообщения
Вы не можете редактировать свои сообщения
Вы не можете удалять свои сообщения
Вы не можете голосовать в опросах
Вы не можете прикреплять файлы к сообщениям
Вы не можете скачивать файлы