Отцовская любовь / Ehsaas. The feeling (Махеш Манджрекар / Mahesh Manjrekar) [2001, Индия, мелодрама, SATRip] MVO

Ответить на тему
 
Автор Сообщение

user ®

Стаж: 13 лет

Сообщений: 15070

Пост Пост: #1 от 14-Окт-2015 22:48

[Цитировать]

Отцовская любовь / Ehsaas. The feeling
Страна: Индия
Жанр: мелодрама
Год выпуска: 2001
Продолжительность: 01:51:08
Перевод: Профессиональный (многоголосый закадровый)
Cубтитры: нет
Режиссер: Махеш Манджрекар / Mahesh Manjrekar
В ролях: Cунил Шетти / Sunil Shetty, Неха / Neha, Шакти Капур / Shakti Kapoor, Ананд Радж Ананд / Anand Raj Anand, Сунидхи Чаухан / Sunidhi Chauhan, Кирон Кхер / Kiron Kher, Санджай Нарвекар / Sanjay Narvekar, Маянк Тандон / Mayank Tandon
Описание: Рави - бывший бегун, ушедший из спорта из-за травмы. Он живёт в Гоа вместе с сыном Роханом, которого воспитывает в одиночку. У Рохана прекрасные физические данные и все шансы победить на индийской школьной спартакиаде в беге на 400 метров.
Рави очень любит сына, но, как тренер, вынужден держать его в ежовых рукавицах. Это вызывает у Рохана неприязнь к отцу, переходящую в ненависть...




Качество видео: SATRip
Формат видео: AVI
Видео: 720x384 (1.88:1), 25 fps, XviD build 50 ~1942 kbps avg, 0.28 bit/pixel
Аудио: 48 kHz, MPEG Layer 3, 2 ch, ~192.00 kbps avg

MediaInfo
K:\Rozdacha\Otzovskaya.lubov.2001.SATRip.avi
General
Complete name : K:\Rozdacha\Otzovskaya.lubov.2001.SATRip.avi
Format : AVI
Format/Info : Audio Video Interleave
File size : 1.66 GiB
Duration : 1h 51mn
Overall bit rate : 2 144 Kbps
Writing application : VirtualDubMod 1.5.10.3 | www.virtualdub-fr.org || (build 2550/release)
Video #0
ID : 0
Format : MPEG-4 Visual
Format profile : Advanced Simple@L5
Format settings, BVOP : 1
Format settings, QPel : No
Format settings, GMC : No warppoints
Format settings, Matrix : Default (H.263)
Codec ID : XVID
Codec ID/Hint : XviD
Duration : 1h 51mn
Bit rate : 1 943 Kbps
Width : 720 pixels
Height : 384 pixels
Display aspect ratio : 1.85:1
Frame rate : 25.000 fps
Color space : YUV
Chroma subsampling : 4:2:0
Bit depth : 8 bits
Scan type : Progressive
Compression mode : Lossy
Bits/(Pixel*Frame) : 0.281
Stream size : 1.51 GiB (91%)
Writing library : XviD 1.2.1 (UTC 2008-12-04)
Audio #1
ID : 1
Format : MPEG Audio
Format version : Version 1
Format profile : Layer 3
Codec ID : 55
Codec ID/Hint : MP3
Duration : 1h 51mn
Bit rate mode : Constant
Bit rate : 192 Kbps
Channel(s) : 2 channels
Sampling rate : 48.0 KHz
Compression mode : Lossy
Stream size : 153 MiB (9%)
Alignment : Aligned on interleaves
Interleave, duration : 40 ms (1.00 video frame)
Interleave, preload duration : 504 ms
Writing library : LAME3.98r
Encoding settings : -m s -V 4 -q 2 -lowpass 18.6 -b 192
Скриншот c названием фильма Скриншоты
Скачать

Скачать торрент! Отцовская любовь / Ehsaas. The feeling (Махеш Манджрекар / Mahesh Manjrekar) [2001, Индия, мелодрама, SATRip] MVO

Как скачивать? · Что такое торрент? · Рейтинг и ограничения

Сайт не распространяет и не хранит электронные версии произведений, а лишь предоставляет доступ к создаваемому пользователями каталогу ссылок на торрент-файлы, которые содержат только списки хеш-сумм

[Профиль] [ЛС]
Показать сообщения:    
Ответить на тему

Текущее время: Сегодня 16:12

Часовой пояс: GMT + 4



Вы не можете начинать темы
Вы не можете отвечать на сообщения
Вы не можете редактировать свои сообщения
Вы не можете удалять свои сообщения
Вы не можете голосовать в опросах
Вы не можете прикреплять файлы к сообщениям
Вы не можете скачивать файлы