Пробуждающая совесть / Skammerens datter (Кеннет Кайнц / Kenneth Kainz) [2015, Дания, фэнтези, приключения, WEB-DLRip] VO

Ответить на тему
 
Автор Сообщение

user ®

Стаж: 7 лет 7 месяцев

Сообщений: 20008

Пост Пост: #1 от 14-Окт-2015 22:48

[Цитировать]

Пробуждающая совесть / Skammerens datterСтрана: Дания
Жанр: фэнтези, приключения
Год выпуска: 2015
Продолжительность: 01:36:05
Перевод: Одноголосый закадровый Lord32x, по переводу М.Васильев (рекламы и ссылок нет)
Субтитры: нет-Режиссер: Кеннет Кайнц / Kenneth Kainz-В ролях: Ребекка Саттруп, Якоб Офтебро, Эллан Хайд, Мария Бонневи, Сёрен Маллинг
--Дина унаследовала от матери сверхъестественный дар. Она может заглядывать в души людей, заставляя тех испытывать стыд за свои поступки. Когда единственного наследника престола обвинили в убийстве венценосной семьи, мать девочки обманом завлекают в замок, чтобы заставить обвиняемого сознаться в преступлении. Та отказывается использовать свою силу во зло и попадает в заточение. Теперь Дине предстоит раскрыть правду, попав в эпицентр борьбы за власть и подвергнув опасности собственную жизнь. В фэнтезийном мире Средневековья, где есть место драконам и настоящей магии, девочку и её семью ждут приключения и справедливая цель — утвердить на престоле законного наследника.-
-
Сэмпл: http://sendfile.su/1164168
Качество видео: WEB-DLRip
Формат видео: AVI
Видео: XviD (1.2.1) 950kbps 688x288 25.000fps
Аудио: MP3 128kbps 2ch 16bit 48000khz


MediaInfo
MediaInfoLib - v0.7.62
General
Complete name : E:\Контарик\Downloads\Мои раздачи\Пробуждающая совесть (Skammerens datter). 2015г. WEB-DLRip. - kontarik81.avi
Format : AVI
Format/Info : Audio Video Interleave
File size : 718 MiB
Duration : 1h 32mn
Overall bit rate : 1 088 Kbps
Writing application : VirtualDubMod 1.5.10.3 | www.virtualdub-fr.org || (build 2550/release)
Writing library : VirtualDubMod build 2550/release
Video
ID : 0
Format : MPEG-4 Visual
Format profile : Advanced Simple@L5
Format settings, BVOP : 1
Format settings, QPel : No
Format settings, GMC : No warppoints
Format settings, Matrix : Default (H.263)
Codec ID : XVID
Codec ID/Hint : XviD
Duration : 1h 32mn
Bit rate : 950 Kbps
Width : 688 pixels
Height : 288 pixels
Display aspect ratio : 2.40:1
Frame rate : 25.000 fps
Color space : YUV
Chroma subsampling : 4:2:0
Bit depth : 8 bits
Scan type : Progressive
Compression mode : Lossy
Bits/(Pixel*Frame) : 0.192
Stream size : 627 MiB (87%)
Writing library : XviD 1.2.1 (UTC 2008-12-04)
Audio
ID : 1
Format : MPEG Audio
Format version : Version 1
Format profile : Layer 3
Codec ID : 55
Codec ID/Hint : MP3
Duration : 1h 32mn
Bit rate mode : Constant
Bit rate : 128 Kbps
Channel(s) : 2 channels
Sampling rate : 48.0 KHz
Compression mode : Lossy
Stream size : 84.5 MiB (12%)
Alignment : Aligned on interleaves
Interleave, duration : 40 ms (1.00 video frame)
Interleave, preload duration : 504 ms
Writing library : LAME3.99r
Encoding settings : -m s -V 4 -q 2 -lowpass 17 -b 128
Скриншот c названием фильма Скриншоты
Скачать

Скачать торрент!

Как скачивать? · Что такое торрент? · Рейтинг и ограничения

Сайт не распространяет и не хранит электронные версии произведений, а лишь предоставляет доступ к создаваемому пользователями каталогу ссылок на торрент-файлы, которые содержат только списки хеш-сумм

[Профиль] [ЛС]
Показать сообщения:    
Ответить на тему

Текущее время: Сегодня 22:37

Часовой пояс: GMT + 4



Вы не можете начинать темы
Вы не можете отвечать на сообщения
Вы не можете редактировать свои сообщения
Вы не можете удалять свои сообщения
Вы не можете голосовать в опросах
Вы не можете прикреплять файлы к сообщениям
Вы не можете скачивать файлы