Семейка Брэди 2 / A Very Brady Sequel (Арлин Санфорд / Arlene Sanford) [1996, США, комедия, семейный, WEB-DL 720p] DVO (Премьер Видео Фильм) + Sub Eng + Original Eng

Ответить на тему
 
Автор Сообщение

user ®

Стаж: 7 лет 7 месяцев

Сообщений: 20008

Пост Пост: #1 от 14-Окт-2015 19:42

[Цитировать]

Семейка Брэди 2 / A Very Brady Sequel
Страна: США
Жанр: комедия, семейный
Год выпуска: 1996
Продолжительность: 01:29:55
Перевод: Профессиональный (двухголосый закадровый) Премьер Видео Фильм
Cубтитры: английские
Оригинальная аудиодорожка: английский
Режиссер: Арлин Санфорд / Arlene Sanford
В ролях: Шелли Лонг, Гэри Коул, Тим Мэтисон, Кристин Тейлор, Кристофер Дэниэл Барнс, Дженнифер Элиз Кокс, Пол Сатера, Оливия Хэк, Джесси Ли, Хенриетта Мантел...
Описание: Фильм основан на популярном американском телесериале шедшем с 1969 по 1974. У супругов Майка и Кэрол Брэди шестеро детей, у каждого из которых — свои проблемы. Полноправным членом семьи является также экономка Элис. Майк собирается отпраздновать годовщину свадьбы с Кэрол и готовит ей сюрприз. Тут неожиданно появляется давно забытый первый муж Кэрол — Рой и переворачивает семейную лодку. Рой увозит Кэрол на Гаваи, а Брэди пускаются в погоню — навстречу солнцу и самым забавным приключениям в своей жизни.
Доп. информация: За перевод Премьер Видео Фильм спасибо spartac.
Сэмпл: http://multi-up.com/1070686
Тип релиза: WEB-DL 720p
Контейнер: MKV
Видео: 1280x720 (16:9), 23.976 fps, AVC, ~4093 Kbps, 0.185 bits/pixel
Аудио 1: Russian, 48.0 KHz, AC3, 2 ch, 192 Kbps - Премьер Видео Фильм
Аудио 2: English, 48.0 KHz, AC3, 6 ch, 448 Kbps

Сравнение
[url=http://***/forum/viewtopic.php?t=3044451]http://***/forum/viewtopic.php?t=3044451[/url]
http://screenshotcomparison.com/comparison/146399/picture:0
MediaInfo
General
Unique ID : 182498913405143964215241671367002525058 (0x894C03207D78F021BAD06D2A0D0D8D82)
Complete name : D:\A Very Brady Sequel. WEB-DL 720p.mkv
Format : Matroska
Format version : Version 4 / Version 2
File size : 3.03 GiB
Duration : 1h 29mn
Overall bit rate : 4 830 Kbps
Movie name : A.Very.Brady.Sequel.1996.720p.WEB-DL.DD5.1.H264-FGT
Encoded date : UTC 2015-10-11 15:52:37
Writing application : mkvmerge v8.4.0 ('A better way to fly') 64bit
Writing library : libebml v1.3.1 + libmatroska v1.4.2
DURATION : 01:29:54.432000000
NUMBER_OF_FRAMES : 168576
NUMBER_OF_BYTES : 302088192
_STATISTICS_WRITING_APP : mkvmerge v8.4.0 ('A better way to fly') 64bit
_STATISTICS_WRITING_DATE_UT : 2015-10-11 15:52:37
_STATISTICS_TAGS : BPS DURATION NUMBER_OF_FRAMES NUMBER_OF_BYTES
Video
ID : 1
Format : AVC
Format/Info : Advanced Video Codec
Format profile : High@L3.1
Format settings, CABAC : No
Format settings, ReFrames : 2 frames
Codec ID : V_MPEG4/ISO/AVC
Duration : 1h 29mn
Bit rate : 4 094 Kbps
Width : 1 280 pixels
Height : 720 pixels
Display aspect ratio : 16:9
Frame rate mode : Constant
Frame rate : 23.976 fps
Color space : YUV
Chroma subsampling : 4:2:0
Bit depth : 8 bits
Scan type : Progressive
Bits/(Pixel*Frame) : 0.185
Stream size : 2.57 GiB (85%)
Language : English
Default : Yes
Forced : No
Color range : Limited
Color primaries : BT.709
Transfer characteristics : BT.709
Matrix coefficients : BT.709
Audio #1
ID : 2
Format : AC-3
Format/Info : Audio Coding 3
Mode extension : CM (complete main)
Format settings, Endianness : Big
Codec ID : A_AC3
Duration : 1h 29mn
Bit rate mode : Constant
Bit rate : 192 Kbps
Channel(s) : 2 channels
Channel positions : Front: L R
Sampling rate : 48.0 KHz
Compression mode : Lossy
Stream size : 123 MiB (4%)
Title : Премьер Видео Фильм
Language : Russian
Default : Yes
Forced : No
Audio #2
ID : 3
Format : AC-3
Format/Info : Audio Coding 3
Mode extension : CM (complete main)
Format settings, Endianness : Big
Codec ID : A_AC3
Duration : 1h 29mn
Bit rate mode : Constant
Bit rate : 448 Kbps
Channel(s) : 6 channels
Channel positions : Front: L C R, Side: L R, LFE
Sampling rate : 48.0 KHz
Compression mode : Lossy
Stream size : 288 MiB (9%)
Language : English
Default : No
Forced : No
Text
ID : 4
Format : UTF-8
Codec ID : S_TEXT/UTF8
Codec ID/Info : UTF-8 Plain Text
Language : English
Default : No
Forced : No
Menu
00:00:00.000 : en:The 20 Million Dollar Horse
00:07:19.000 : en:House of Cards
00:11:48.000 : en:Tale of the Lost Husband
00:16:45.000 : en:Imaginary Boyfriend
00:19:25.000 : en:Attic Mating
00:22:22.000 : en:George Glass
00:24:20.000 : en:Buyer Beware
00:25:39.000 : en:Moesha, Moesha, Moesha
00:30:43.000 : en:Detectives Bobby and Cindy
00:35:37.000 : en:Hair Appointment
00:38:00.000 : en:The Horse Trader
00:41:38.000 : en:Spaghetti With Mushrooms
00:47:11.000 : en:555-Hunk
00:49:00.000 : en:About A Chick
00:53:00.000 : en:Women's Club Charity Auction
00:57:34.000 : en:Cappuccino Rendezvous
01:00:55.000 : en:A Liar and a Jailbird
01:05:53.000 : en:Who is to blame?
01:07:30.000 : en:Dancing and Singing in the Isles
01:14:49.000 : en:Following the Yarn
01:16:56.000 : en:Dr. Whitehead's Mansion
01:23:03.000 : en:Anniversary Surprise
01:26:03.000 : en:End Credits
Скриншоты
Скачать

Скачать торрент!

Как скачивать? · Что такое торрент? · Рейтинг и ограничения

Сайт не распространяет и не хранит электронные версии произведений, а лишь предоставляет доступ к создаваемому пользователями каталогу ссылок на торрент-файлы, которые содержат только списки хеш-сумм

[Профиль] [ЛС]
Показать сообщения:    
Ответить на тему

Текущее время: Сегодня 07:52

Часовой пояс: GMT + 4



Вы не можете начинать темы
Вы не можете отвечать на сообщения
Вы не можете редактировать свои сообщения
Вы не можете удалять свои сообщения
Вы не можете голосовать в опросах
Вы не можете прикреплять файлы к сообщениям
Вы не можете скачивать файлы