В погоне за солнцем / Race the Sun (Чарлз Т. Кэнгэнис / Charles T. Kanganis) [1996, США, драма, приключения, комедия, WEB-DL 720p] DVO (Видеосервис) + AVO (Павел Санаев) + Sub Eng + Original Eng

Ответить на тему
 
Автор Сообщение

user ®

Стаж: 7 лет 7 месяцев

Сообщений: 20008

Пост Пост: #1 от 14-Окт-2015 19:42

[Цитировать]

В погоне за солнцем / Race the Sun
Страна: США
Студия: TriStar Pictures
Жанр: драма, приключения, комедия
Год выпуска: 1996
Продолжительность: 01:39:43
Перевод 1: Профессиональный (двухголосый закадровый) Видеосервис
Перевод 2: Авторский (одноголосый закадровый) Павел Санаев
Cубтитры: английские
Оригинальная аудиодорожка: английский
Режиссер: Чарлз Т. Кэнгэнис / Charles T. Kanganis
В ролях: Холли Берри / Halle Berry, Джеймс Белуши / James Belushi, Кейси Аффлек / Casey Affleck, Элиза Душку / Eliza Dushku, Кевин Тай / Kevin Tighe, Энтони Руйвивар / Anthony Ruivivar, Стив Зан / Steve Zahn, Дион Баско / Dion Basco, Дж. Моки Чо / J. Moki Cho, Надя Пионилла / Nadja Pionilla, Адриан Напуалани Уганиза / Adriane Napualani Uganiza, Сара Танака / Sara Tanaka, Билл Хантер / Bill Hunter
Описание: Они измеряют счастье в секундах. За мгновение перед стартом для них проходит целая вечность. Будущие чемпионы приручили скорость, и на крутых виражах гоночная трасса снова и снова испытывает их мастерство.
Каждый надеется только на победу, но чтобы совершить круг почета, им придется проехать все круги ада. Джеймс Белуши отправляется в погоню за солнцем в знаменитом приключенческом фильме, основанном на реальных событиях.
II Сэмпл II IMDB II
Цитата:
За дорожку и оцифровку кассеты от "Видеосервис" спасибо Fikaloid
За дорогу с Павлом Санаевым спасибо vikholin2004
Тип релиза: WEB-DL 720p
Контейнер: MKV
Видео: AVC / 1280x716 / 16:9 / 23.976fps / Bit rate 4185Kbps
Аудио 1: AC3 / 48.0 KHz / 2ch. / 192kbps / rus / dvo / Видеосервис
Аудио 2: AC3 / 48.0 KHz / 2ch. / 192kbps / rus / avo / Павел Санаев
Аудио 3: AC3 / 48.0 KHz / 6ch. / 384kbps / eng
Формат субтитров: softsub (SRT)
MediaInfo
Общее
Уникальный идентификатор : 238080831989925510854618120338004651282 (0xB31CB34A3AC10D0481022DFED68E2D12)
Полное имя : G:\!!!_torrent\Race.the.Sun.1996.WEB-DL.720p_by_vedigo.mkv
Формат : Matroska
Версия формата : Version 4 / Version 2
Размер файла : 3,52 Гбайт
Продолжительность : 1 ч. 39 м.
Общий поток : 5054 Кбит/сек
Название фильма : Race.the.Sun.1996.WEB-DL.720p_by_vedigo
Дата кодирования : UTC 2015-10-12 02:50:42
Программа кодирования : mkvmerge v8.4.0 ('A better way to fly') 64bit
Библиотека кодирования : libebml v1.3.1 + libmatroska v1.4.2
DURATION : 01:34:44.144000000
NUMBER_OF_FRAMES : 1142
NUMBER_OF_BYTES : 42425
_STATISTICS_WRITING_APP : mkvmerge v8.4.0 ('A better way to fly') 64bit
_STATISTICS_WRITING_DATE_UTC : 2015-10-12 02:50:42
_STATISTICS_TAGS : BPS DURATION NUMBER_OF_FRAMES NUMBER_OF_BYTES
Видео
Идентификатор : 1
Формат : AVC
Формат/Информация : Advanced Video Codec
Профиль формата : High@L3.1
Параметр CABAC формата : Нет
Параметр ReFrames формата : 2 кадра
Идентификатор кодека : V_MPEG4/ISO/AVC
Продолжительность : 1 ч. 39 м.
Битрейт : 4185 Кбит/сек
Ширина : 1280 пикселей
Высота : 716 пикселей
Соотношение сторон : 16:9
Режим частоты кадров : Постоянный
Частота кадров : 23,976 кадра/сек
Цветовое пространство : YUV
Субдискретизация насыщенности : 4:2:0
Битовая глубина : 8 бит
Тип развёртки : Прогрессивная
Бит/(Пиксели*Кадры) : 0.190
Размер потока : 2,92 Гбайт (83%)
Заголовок : Race.the.Sun.1996.WEB-DL.720p_by_vedigo
Default : Да
Forced : Нет
Цветовой диапазон : Limited
Основные цвета : BT.709
Характеристики трансфера : BT.709
Коэффициенты матрицы : BT.709
Аудио #1
Идентификатор : 2
Формат : AC-3
Формат/Информация : Audio Coding 3
Расширение режима : CM (complete main)
Параметр Endianness формата : Big
Идентификатор кодека : A_AC3
Продолжительность : 1 ч. 39 м.
Вид битрейта : Постоянный
Битрейт : 192 Кбит/сек
Каналы : 2 канала
Расположение каналов : Front: L R
Частота : 48,0 КГц
Метод сжатия : С потерями
Размер потока : 137 Мбайт (4%)
Заголовок : DVO @ Видеосервис
Язык : Russian
Default : Да
Forced : Нет
Аудио #2
Идентификатор : 3
Формат : AC-3
Формат/Информация : Audio Coding 3
Расширение режима : CM (complete main)
Параметр Endianness формата : Big
Идентификатор кодека : A_AC3
Продолжительность : 1 ч. 39 м.
Вид битрейта : Постоянный
Битрейт : 192 Кбит/сек
Каналы : 2 канала
Расположение каналов : Front: L R
Частота : 48,0 КГц
Метод сжатия : С потерями
Размер потока : 137 Мбайт (4%)
Заголовок : AVO @ Павел Санаев
Язык : Russian
Default : Нет
Forced : Нет
Аудио #3
Идентификатор : 4
Формат : AC-3
Формат/Информация : Audio Coding 3
Расширение режима : CM (complete main)
Параметр Endianness формата : Big
Идентификатор кодека : A_AC3
Продолжительность : 1 ч. 39 м.
Вид битрейта : Постоянный
Битрейт : 384 Кбит/сек
Каналы : 6 каналов
Расположение каналов : Front: L C R, Side: L R, LFE
Частота : 48,0 КГц
Метод сжатия : С потерями
Размер потока : 274 Мбайт (8%)
Заголовок : original
Язык : English
Default : Нет
Forced : Нет
Текст
Идентификатор : 5
Формат : UTF-8
Идентификатор кодека : S_TEXT/UTF8
Идентификатор кодека/Информация : UTF-8 Plain Text
Заголовок : subtitle eng
Язык : English
Default : Нет
Forced : Нет
Меню
00:00:00.000 : en:Start
00:03:34.000 : en:Beecher the Teacher
00:05:57.000 : en:Staff Meeting
00:10:06.000 : en:The Science Fair
00:12:49.000 : en:Saturday Dentention
00:14:36.000 : en:Enlisting Teach
00:19:11.000 : en:Project Start-Up
00:21:44.000 : en:A Chat with Frank
00:25:35.000 : en:A New Design
00:30:43.000 : en:The Race Begins
00:35:52.000 : en:Last Lap
00:38:01.000 : en:Spin Control
00:43:29.000 : en:Day 1
00:46:01.000 : en:Busted Ball Joint
00:49:03.000 : en:Day 2
00:51:01.000 : en:Dust Storm
00:54:48.000 : en:Day 3
00:59:54.000 : en:The Country Western Bar
01:04:43.000 : en:Day 4
01:06:01.000 : en:Cindy, Off the Team
01:08:52.000 : en:Day 5
01:09:45.000 : en:Gilbert's Idea
01:12:02.000 : en:Road Train
01:16:01.000 : en:Day 6
01:19:44.000 : en:"Braz, I Smell Something."
01:26:26.000 : en:Gilbert Takes the Wheel
01:28:31.000 : en:Taking the Hill
01:31:09.000 : en:"Kona Rules!"
Скриншоты
Скачать

Скачать торрент!

Как скачивать? · Что такое торрент? · Рейтинг и ограничения

Сайт не распространяет и не хранит электронные версии произведений, а лишь предоставляет доступ к создаваемому пользователями каталогу ссылок на торрент-файлы, которые содержат только списки хеш-сумм

[Профиль] [ЛС]
Показать сообщения:    
Ответить на тему

Текущее время: Сегодня 19:56

Часовой пояс: GMT + 4



Вы не можете начинать темы
Вы не можете отвечать на сообщения
Вы не можете редактировать свои сообщения
Вы не можете удалять свои сообщения
Вы не можете голосовать в опросах
Вы не можете прикреплять файлы к сообщениям
Вы не можете скачивать файлы