Гамлет 2 / Hamlet 2 (Эндрю Флеминг / Andrew Fleming) [2008, США, комедия, WEB-DL 720p] AVO + Sub Rus, Eng + Original Eng

Ответить на тему
 
Автор Сообщение

user ®

Стаж: 7 лет 11 месяцев

Сообщений: 20008

Пост Пост: #1 от 14-Окт-2015 19:42

[Цитировать]

Гамлет 2 / Hamlet 2
-Страна: США
Жанр: комедия
Год выпуска: 2008
Продолжительность: 01:31:48-Перевод : Авторский (одноголосый закадровый) Антон Карповский
Cубтитры: русские (albert13), английские
Оригинальная аудиодорожка: английский-Режиссер: Эндрю Флеминг / Andrew Fleming-В ролях: Стив Кугэн, Кэтрин Кинер, Джозеф Джулиан Сория, Скайлар Эстин, Мелони Диаз, Арни Пантойя, Майкл Эспарса, Маршалл Белл-Описание:
Главный герой истории — школьный учитель, который всеми правдами и неправдами старается спасти свой драматический кружок. Протагонист готов пойти абсолютно на все — даже написать сиквел к шекспировской трагедии «Гамлет».-Сэмпл: Скачать-Тип релиза: WEB-DL 720p
Контейнер: MKV-Видео: 1280x692 (1.85:1); 4 190 Kbps; 23.976 fps; 0.197 bpp
Аудио 1: Russian; AC3; 48.0 KHz; 6ch; 448 Kbps
Аудио 2: English; AC3; 48.0 KHz; 6ch; 448 Kbps
MediaInfo
Format : Matroska
Format version : Version 4 / Version 2
File size : 3.32 GiB
Duration : 1h 31mn
Overall bit rate : 5 174 Kbps
Encoded date : UTC 2015-07-24 09:24:15
Writing application : mkvmerge v8.1.0 ('Psychedelic Postcard') 64bit
Writing library : libebml v1.3.1 + libmatroska v1.4.2
Attachements : poster.jpg
DURATION : 01:31:54.976000000
NUMBER_OF_FRAMES : 172343
NUMBER_OF_BYTES : 308838656
_STATISTICS_WRITING_APP : mkvmerge v8.1.0 ('Psychedelic Postcard') 64bit
_STATISTICS_WRITING_DATE_UTC : 2015-07-24 09:24:15
_STATISTICS_TAGS : BPS DURATION NUMBER_OF_FRAMES NUMBER_OF_BYTES
Video
ID : 1
Format : AVC
Format/Info : Advanced Video Codec
Format profile : High@L3.1
Format settings, CABAC : No
Format settings, ReFrames : 2 frames
Codec ID : V_MPEG4/ISO/AVC
Duration : 1h 31mn
Bit rate : 4 175 Kbps
Width : 1 280 pixels
Height : 692 pixels
Display aspect ratio : 1.85:1
Frame rate mode : Constant
Frame rate : 23.976 fps
Color space : YUV
Chroma subsampling : 4:2:0
Bit depth : 8 bits
Scan type : Progressive
Bits/(Pixel*Frame) : 0.197
Stream size : 2.68 GiB (81%)
Language : English
Default : Yes
Forced : No
Color primaries : BT.709
Transfer characteristics : BT.709
Matrix coefficients : BT.709
Audio #1
ID : 2
Format : AC-3
Format/Info : Audio Coding 3
Mode extension : CM (complete main)
Format settings, Endianness : Big
Codec ID : A_AC3
Duration : 1h 31mn
Bit rate mode : Constant
Bit rate : 448 Kbps
Channel(s) : 6 channels
Channel positions : Front: L C R, Side: L R, LFE
Sampling rate : 48.0 KHz
Bit depth : 16 bits
Compression mode : Lossy
Stream size : 295 MiB (9%)
Title : AVO Карповский
Language : Russian
Default : Yes
Forced : No
Audio #2
ID : 3
Format : AC-3
Format/Info : Audio Coding 3
Mode extension : CM (complete main)
Format settings, Endianness : Big
Codec ID : A_AC3
Duration : 1h 31mn
Bit rate mode : Constant
Bit rate : 448 Kbps
Channel(s) : 6 channels
Channel positions : Front: L C R, Side: L R, LFE
Sampling rate : 48.0 KHz
Bit depth : 16 bits
Compression mode : Lossy
Stream size : 295 MiB (9%)
Language : English
Default : No
Forced : No
Text #1
ID : 4
Format : UTF-8
Codec ID : S_TEXT/UTF8
Codec ID/Info : UTF-8 Plain Text
Title : albert13
Language : Russian
Default : No
Forced : No
Text #2
ID : 5
Format : UTF-8
Codec ID : S_TEXT/UTF8
Codec ID/Info : UTF-8 Plain Text
Language : English
Default : No
Forced : No
Menu
00:00:00.000 : en:To Act Is to Live
00:01:51.000 : en:Act 1, The West Mesa High Spring Drama Spectacular
00:04:50.000 : en:The Only Elective
00:11:59.000 : en:Act 2, Having Mexican Food
00:14:58.000 : en:Drama Canceled
00:19:23.000 : en:Finding Inspiration
00:25:59.000 : en:Act 3, The Creative Process
00:32:19.000 : en:In the Fun Zone
00:38:51.000 : en:Parents' Consent
00:40:53.000 : en:Unwholesome Content
00:47:33.000 : en:Act 4, Hope Is a Demon Bitch
00:53:08.000 : en:On Your Side
00:56:44.000 : en:Bruised but Not Broken
01:01:49.000 : en:Don't Give Up
01:06:01.000 : en:Act 5, No Turning Back!!!!!!!!
01:10:33.000 : en:"Raped In The Face"
01:12:53.000 : en:"Rock Me Sexy Jesus"
01:16:46.000 : en:No Intermission
01:23:42.000 : en:On Broadway
01:25:22.000 : en:End Titles
Скриншоты
Скачать

Скачать торрент!

Как скачивать? · Что такое торрент? · Рейтинг и ограничения

Сайт не распространяет и не хранит электронные версии произведений, а лишь предоставляет доступ к создаваемому пользователями каталогу ссылок на торрент-файлы, которые содержат только списки хеш-сумм

[Профиль] [ЛС]
Показать сообщения:    
Ответить на тему

Текущее время: Сегодня 08:51

Часовой пояс: GMT + 4



Вы не можете начинать темы
Вы не можете отвечать на сообщения
Вы не можете редактировать свои сообщения
Вы не можете удалять свои сообщения
Вы не можете голосовать в опросах
Вы не можете прикреплять файлы к сообщениям
Вы не можете скачивать файлы